<?xml version="1.0" standalone="no"?>
<!DOCTYPE svg PUBLIC "-//W3C//DTD SVG 1.1//EN" "http://www.w3.org/Graphics/SVG/1.1/DTD/svg11.dtd" >
<svg xmlns="http://www.w3.org/2000/svg" xmlns:xlink="http://www.w3.org/1999/xlink" version="1.1">
<metadata>
Created by FontForge 20161013 at Mon Feb  6 17:20:14 2017
 By ,,,
Copyright (c)2016, Illuma designed by Alfredo Marco Pradil (ammpradil@gmail.com). Illuma is a trademark of Alfredo Marco Pradil.
</metadata>
<defs>
<font id="Illuma-Black" horiz-adv-x="0" >
  <font-face 
    font-family="Illuma Black"
    font-weight="900"
    font-stretch="normal"
    units-per-em="2048"
    panose-1="0 0 10 0 0 0 0 0 0 0"
    ascent="1638"
    descent="-410"
    x-height="1049"
    cap-height="1413"
    bbox="-1446 -922 2943 2141"
    underline-thickness="82"
    underline-position="-264"
    unicode-range="U+0020-FB02"
  />
<missing-glyph horiz-adv-x="1053" 
d="M158 0v999h737v-999h-737zM250 102h553v795h-553v-795z" />
    <glyph glyph-name="fi" unicode="fi" horiz-adv-x="1268" 
d="M1145 1049v-1049h-352v836h-279v-836h-348v836h-143v213h147v71q0 65 18.5 121t55 99.5t96.5 68.5t137 25q56 0 203 -21v-242q-55 11 -90 11q-55 0 -69.5 -27t-14.5 -106h639zM793 1413h352v-252h-352v252z" />
    <glyph glyph-name="fl" unicode="fl" horiz-adv-x="1327" 
d="M170 1120q0 65 18.5 121t55 99.5t96.5 68.5t137 25q56 0 203 -21v-242q-55 11 -90 11q-41 0 -58.5 -30t-17.5 -103h166v-213h-166v-836h-344v836h-147v213h147v71zM1220 231q27 0 91 11v-242q-140 -20 -203 -20q-152 0 -229.5 88t-77.5 225v1120h344v-1048q0 -74 17 -104
t58 -30z" />
    <glyph glyph-name="F_T.liga" unicode="FT" horiz-adv-x="2054" 
d="M2023 1413v-332h-354v-1081h-356v1081h-795v-258h518v-311h-518v-512h-358v1413h1863z" />
    <glyph glyph-name="F_W.liga" unicode="FW" horiz-adv-x="2990" 
d="M2572 1413h371l-242 -1413h-522l-151 946l-146 -946h-524l-184 1081h-656v-258h477v-311h-477v-512h-358v1413h1329l153 -1089h15l180 1089h389l180 -1089h13z" />
    <glyph glyph-name="T_W.liga" unicode="TW" horiz-adv-x="2904" 
d="M2486 1413h371l-242 -1413h-522l-154 946l-145 -946h-522l-184 1081h-349v-1081h-358v1081h-350v332h1372l151 -1089h17l180 1089h389l180 -1089h13z" />
    <glyph glyph-name="T_h.liga" unicode="Th" horiz-adv-x="2179" 
d="M381 0v1081h-350v332h1411v-481h2q45 65 126.5 101t172.5 36q159 0 245.5 -104t86.5 -265v-700h-346v586q0 184 -132 184q-75 0 -115 -49t-40 -139v-582h-350v1081h-353v-1081h-358z" />
    <glyph glyph-name="f_f" unicode="ff" horiz-adv-x="1317" 
d="M1217 1182q-55 0 -69.5 -27t-14.5 -106h174v-213h-166v-836h-348v836h-279v-836h-348v836h-143v213h147v71q0 65 18.5 121t55 99.5t96.5 68.5t137 25q56 0 203 -21v-242q-55 11 -90 11q-55 0 -69.5 -27t-14.5 -106h291v71q0 65 18.5 121t55 99.5t96.5 68.5t137 25
q56 0 203 -21v-242q-55 11 -90 11z" />
    <glyph glyph-name="f_f_i" unicode="ffi" horiz-adv-x="1896" 
d="M1774 1049v-1049h-353v836h-280v-836h-348v836h-279v-836h-348v836h-143v213h147v71q0 65 18.5 121t55 99.5t96.5 68.5t137 25q56 0 203 -21v-242q-55 11 -90 11q-55 0 -69.5 -27t-14.5 -106h291v71q0 65 18.5 121t55 99.5t96.5 68.5t137 25q56 0 203 -21v-242
q-55 11 -90 11q-55 0 -69.5 -27t-14.5 -106h641zM1421 1413h353v-252h-353v252z" />
    <glyph glyph-name="f_r.liga" unicode="fr" horiz-adv-x="1448" 
d="M1126 850q50 68 132.5 129t175.5 90v-336q-97 -21 -180.5 -64t-112.5 -87v-582h-348v836h-279v-836h-348v836h-143v213h147v71q0 65 18.5 121t55 99.5t96.5 68.5t137 25q56 0 203 -21v-242q-55 11 -90 11q-55 0 -69.5 -27t-14.5 -106h620v-199z" />
    <glyph glyph-name="f_u.liga" unicode="fu" horiz-adv-x="1880" 
d="M1407 1049h346v-1049h-338v117h-16q-43 -74 -122 -111t-175 -37q-157 0 -244.5 109.5t-87.5 271.5v486h-256v-836h-348v836h-143v213h147v71q0 65 18.5 121t55 99.5t96.5 68.5t137 25q56 0 203 -21v-242q-55 11 -90 11q-55 0 -69.5 -27t-14.5 -106h614v-592
q0 -75 40 -120.5t108 -45.5q139 0 139 168v590z" />
    <glyph glyph-name="f_y.liga" unicode="fy" horiz-adv-x="1782" 
d="M1415 1049h375l-412 -1141q-59 -162 -148.5 -223.5t-238.5 -61.5q-60 0 -160 10v277q75 -12 125 -12q57 0 86 19.5t29 66.5q0 22 -12 63l-279 789h-266v-836h-348v836h-143v213h147v71q0 65 18.5 121t55 99.5t96.5 68.5t137 25q56 0 203 -21v-242q-55 11 -90 11
q-55 0 -69.5 -27t-14.5 -106h569l158 -611h18z" />
    <glyph glyph-name="t_w.liga" unicode="tw" horiz-adv-x="2363" 
d="M1989 1049h366l-270 -1049h-445l-118 549l-113 -557h-444l-213 844h-252v-471q0 -75 16 -104.5t57 -29.5q27 0 91 11v-242q-144 -20 -203 -20q-153 0 -231 88t-78 225v543h-123v213h123v200l348 82v-282h565l139 -715l162 715h315l162 -721z" />
    <glyph glyph-name="t_y.liga" unicode="ty" horiz-adv-x="1767" 
d="M1403 1049h373l-412 -1141q-59 -162 -149 -223.5t-238 -61.5q-60 0 -160 10v277q73 -12 125 -12q58 0 86.5 19t28.5 67q0 24 -13 63l-279 789h-265v-471q0 -75 16 -104.5t57 -29.5q27 0 91 11v-242q-144 -20 -203 -20q-153 0 -231 88t-78 225v543h-123v213h123v200
l348 82v-282h561l158 -611h18z" />
    <glyph glyph-name=".notdef" horiz-adv-x="1053" 
d="M158 0v999h737v-999h-737zM250 102h553v795h-553v-795z" />
    <glyph glyph-name=".null" 
 />
    <glyph glyph-name="nonmarkingreturn" horiz-adv-x="682" 
 />
    <glyph glyph-name="space" unicode=" " horiz-adv-x="453" 
 />
    <glyph glyph-name="exclam" unicode="!" horiz-adv-x="655" 
d="M199 494l-27 919h311l-26 -919h-258zM160 0v326h336v-326h-336z" />
    <glyph glyph-name="quotedbl" unicode="&#x22;" horiz-adv-x="1067" 
d="M176 817v596h277v-596h-277zM604 817v596h287v-596h-287z" />
    <glyph glyph-name="numbersign" unicode="#" horiz-adv-x="1249" 
d="M182 0l70 385h-172v242h217l33 178h-180v235h223l69 373h226l-68 -358h172l68 358h223l-68 -369h172v-239h-215l-32 -178h180v-238h-223l-72 -389h-227l71 377h-172l-69 -377h-226zM522 627h172l31 178h-172z" />
    <glyph glyph-name="dollar" unicode="$" horiz-adv-x="1196" 
d="M1094 457q0 -183 -91 -299t-249 -157v-181h-295v168q-157 19 -319 82v391h8q103 -63 222.5 -103.5t205.5 -40.5q78 0 124 33t46 88q0 45 -34.5 75.5t-89.5 49t-122 36.5t-133.5 46.5t-121.5 70.5t-89.5 117.5t-34.5 178.5q0 174 92 276.5t246 132.5v131h295v-133
q140 -27 260 -90v-352h-10q-95 63 -212 107t-200 44q-55 0 -87.5 -21.5t-32.5 -59.5q0 -30 21.5 -52t57.5 -37t82.5 -28t98 -29.5t103 -38t98 -56t82.5 -79.5t57.5 -114.5t21.5 -155.5z" />
    <glyph glyph-name="percent" unicode="%" horiz-adv-x="1559" 
d="M360 698q-65 0 -117.5 26t-84.5 65t-53 90t-29 96.5t-8 87.5q0 43 8 89t28.5 98t52 92.5t84 67t117.5 26.5q77 0 136.5 -36t92 -94t48.5 -120t16 -125q0 -49 -9 -97t-31 -97t-54 -86t-83 -60t-114 -23zM358 0l627 1413h236l-627 -1413h-236zM360 909q93 0 93 156
q0 160 -95 160q-92 0 -92 -160q0 -156 94 -156zM1200 -23q-66 0 -119 26t-84.5 65t-52.5 90t-29 96.5t-8 87.5q0 43 7.5 89t28.5 98t52.5 92.5t84 67t118.5 26.5q77 0 136.5 -36t92 -94t48.5 -120t16 -125q0 -62 -15.5 -122.5t-48 -116t-91.5 -90t-136 -34.5zM1200 188
q92 0 92 156q0 160 -94 160q-92 0 -92 -160q0 -156 94 -156z" />
    <glyph glyph-name="ampersand" unicode="&#x26;" horiz-adv-x="1444" 
d="M1378 0h-354q-29 48 -98 127q-147 -156 -375 -156q-94 0 -178 25.5t-151.5 74.5t-107.5 129.5t-40 182.5q0 152 87 254t214 125q-53 33 -88.5 70.5t-59.5 97.5t-24 135q0 79 25.5 143.5t66.5 106t96 69.5t111.5 40t115.5 12q79 0 151.5 -22t133 -65.5t97 -117.5
t36.5 -168q0 -113 -53.5 -189t-204.5 -157l128 -127q43 60 75 100t75.5 81.5t89.5 62t95 20.5q24 0 66 -10v-369q-35 17 -64 17q-40 0 -72.5 -27.5t-67.5 -81.5q171 -192 275 -383zM625 1182q-48 0 -81.5 -34.5t-33.5 -78.5q0 -45 18.5 -78t77.5 -94l2 -2q79 57 104 92.5
t25 79.5q0 46 -30.5 80.5t-81.5 34.5zM565 276q74 0 152 71l-199 198q-38 -13 -65 -46t-27 -83q0 -70 39 -105t100 -35z" />
    <glyph glyph-name="quotesingle" unicode="'" horiz-adv-x="629" 
d="M176 846v596h277v-596h-277z" />
    <glyph glyph-name="parenleft" unicode="(" horiz-adv-x="651" 
d="M319 -313q-103 140 -172 424.5t-69 584.5q0 287 65.5 555.5t173.5 429.5h324q-274 -416 -274 -1001q0 -287 70 -540.5t206 -452.5h-324z" />
    <glyph glyph-name="parenright" unicode=")" horiz-adv-x="649" 
d="M6 -313q136 199 206.5 452.5t70.5 540.5q0 582 -273 1001h322q109 -160 174 -428t65 -557q0 -300 -69 -584.5t-172 -424.5h-324z" />
    <glyph glyph-name="asterisk" unicode="*" horiz-adv-x="815" 
d="M322 803l57 231q3 16 -4.5 20t-18.5 -7l-166 -166l-92 149l234 66q9 3 12 7.5t0 9t-12 7.5l-234 66l92 151l166 -168q11 -11 18.5 -7t4.5 20l-57 231h174l-62 -231q-3 -14 4.5 -18.5t18.5 5.5l170 168l88 -151l-234 -66q-9 -3 -12 -7.5t0 -9t12 -7.5l234 -66l-88 -149
l-170 166q-11 10 -18.5 5.5t-4.5 -18.5l62 -231h-174z" />
    <glyph glyph-name="plus" unicode="+" horiz-adv-x="1094" 
d="M418 0v373h-336v291h336v372h258v-372h336v-291h-336v-373h-258z" />
    <glyph glyph-name="comma" unicode="," horiz-adv-x="657" 
d="M164 -365v148q27 0 49.5 3.5t39 9t29 16t20.5 19.5t13.5 24t8.5 26t4 29.5t1 29t-0.5 31t-0.5 29.5h-166v365h348v-365q0 -105 -23 -177t-70 -112.5t-108 -58t-145 -17.5z" />
    <glyph glyph-name="hyphen" unicode="-" horiz-adv-x="981" 
d="M123 373v291h735v-291h-735z" />
    <glyph glyph-name="period" unicode="." horiz-adv-x="698" 
d="M174 0v367h350v-367h-350z" />
    <glyph glyph-name="slash" unicode="/" horiz-adv-x="844" 
d="M-27 -156l594 1565h301l-589 -1565h-306z" />
    <glyph glyph-name="zero" unicode="0" horiz-adv-x="1153" 
d="M573 -20q-126 0 -221.5 53.5t-155 151t-89 229.5t-29.5 295q0 130 18 239.5t57 200t97 154t140 98.5t183 35q168 0 283 -94t168 -254.5t53 -378.5q0 -163 -30.5 -295t-91 -229.5t-158 -151t-224.5 -53.5zM573 285q83 0 112.5 94t29.5 330q0 233 -30 325t-112 92
q-85 0 -114 -90.5t-29 -326.5q0 -239 29.5 -331.5t113.5 -92.5z" />
    <glyph glyph-name="one" unicode="1" horiz-adv-x="999" 
d="M90 0v332h268v739l-268 -215v356l270 201h349v-1081h266v-332h-885z" />
    <glyph glyph-name="two" unicode="2" horiz-adv-x="1128" 
d="M1040 1020q0 -108 -38 -204.5t-113 -181t-171 -157t-225 -145.5h537v-332h-932v385q590 363 590 590q0 117 -147 117q-97 0 -225.5 -45.5t-217.5 -102.5v373q105 53 229 85t242 32q97 0 179.5 -23.5t149 -71.5t104.5 -129.5t38 -189.5z" />
    <glyph glyph-name="three" unicode="3" horiz-adv-x="1145" 
d="M541 -20q-237 0 -443 81v369h13q181 -127 389 -127q229 0 229 152q0 69 -56.5 98t-201.5 29h-111v288h115q94 0 145 13t68 36t17 64q0 70 -47 100.5t-146 30.5q-197 0 -397 -115h-17v351q245 75 447 75q226 0 357.5 -100t131.5 -295q0 -227 -200 -293q243 -78 243 -336
q0 -204 -145 -312.5t-391 -108.5z" />
    <glyph glyph-name="four" unicode="4" horiz-adv-x="1116" 
d="M1055 580v-314h-129v-266h-332v266h-559v318l530 829h361v-833h129zM297 580h297v452z" />
    <glyph glyph-name="five" unicode="5" horiz-adv-x="1169" 
d="M592 924q252 0 377 -94t125 -312q0 -252 -151.5 -395t-387.5 -143q-183 0 -412 81v369h13q89 -61 193 -95t183 -34q88 0 143.5 43.5t55.5 128.5q0 95 -71.5 145t-200.5 50q-94 0 -316 -33v778h893v-332h-581v-164q67 7 137 7z" />
    <glyph glyph-name="six" unicode="6" horiz-adv-x="1110" 
d="M643 952q89 0 165.5 -28t136 -82t93 -141t33.5 -197q0 -159 -68.5 -280t-180.5 -182.5t-249 -61.5q-228 0 -373 169.5t-145 434.5q0 108 27.5 216t69.5 194.5t99.5 169t109.5 140.5t108 109h440v-12q-78 -55 -132 -97.5t-118 -103.5t-113 -133t-83 -155q76 40 180 40z
M557 295q74 0 122 56.5t48 160.5q0 101 -46.5 154t-123.5 53q-75 0 -118.5 -52.5t-43.5 -156.5t44.5 -159.5t117.5 -55.5z" />
    <glyph glyph-name="seven" unicode="7" horiz-adv-x="1006" 
d="M197 0q7 138 32.5 274t74 280.5t131.5 280t192 238.5v8h-602v332h958v-309q-55 -53 -100.5 -106.5t-81.5 -108.5t-65 -104t-50.5 -108t-37.5 -105.5t-27.5 -110.5t-18.5 -109t-12.5 -115.5t-8 -115t-6.5 -121.5h-378z" />
    <glyph glyph-name="eight" unicode="8" horiz-adv-x="1155" 
d="M855 757q111 -34 173 -130t62 -226q0 -196 -141 -308.5t-371 -112.5q-229 0 -370.5 112.5t-141.5 308.5q0 130 61.5 226t172.5 130l-1 9q-86 24 -136 106t-50 183q0 78 31 146t88.5 120t148.5 82.5t203 30.5t201 -30t144.5 -82t85 -119t29.5 -144q0 -105 -50 -187
t-138 -106zM578 1153q-60 0 -100 -39.5t-40 -99.5t40 -100t100 -40t100.5 40t40.5 100t-40.5 99.5t-100.5 39.5zM578 301q72 0 116.5 47.5t44.5 120.5t-45 119.5t-116 46.5t-115.5 -46t-44.5 -120q0 -73 44 -120.5t116 -47.5z" />
    <glyph glyph-name="nine" unicode="9" horiz-adv-x="1110" 
d="M537 1434q228 0 373 -170t145 -435q0 -108 -27.5 -216t-69.5 -194t-99.5 -169t-109.5 -141t-108 -109h-440v12q78 55 132 97.5t118 103.5t113 133t83 155q-76 -40 -180 -40q-89 0 -165.5 28t-136 82t-93 141t-33.5 197q0 120 39.5 220t107.5 166t158.5 102.5t192.5 36.5z
M383 901q0 -101 46.5 -154t123.5 -53q75 0 118.5 52.5t43.5 156.5q0 105 -44.5 160t-117.5 55q-74 0 -122 -56t-48 -161z" />
    <glyph glyph-name="colon" unicode=":" horiz-adv-x="758" 
d="M180 688v387h402v-387h-402zM176 0v387h402v-387h-402z" />
    <glyph glyph-name="semicolon" unicode=";" horiz-adv-x="680" 
d="M170 682v367h348v-367h-348zM172 -365v148q27 0 49.5 3.5t39 9t29 16t20.5 19.5t13.5 24t8.5 26t4 29.5t1 29t-0.5 31t-0.5 29.5h-166v365h348v-365q0 -105 -23 -177t-70 -112.5t-108 -58t-145 -17.5z" />
    <glyph glyph-name="less" unicode="&#x3c;" horiz-adv-x="1257" 
d="M1114 78l-1081 596l1081 596v-340l-500 -256l500 -256v-340z" />
    <glyph glyph-name="equal" unicode="=" horiz-adv-x="1221" 
d="M190 618v314h840v-314h-840zM190 104v314h840v-314h-840z" />
    <glyph glyph-name="greater" unicode="&#x3e;" horiz-adv-x="1257" 
d="M143 78v340l500 256l-500 256v340l1082 -596z" />
    <glyph glyph-name="question" unicode="?" horiz-adv-x="940" 
d="M244 498v151q0 50 16 90t41.5 65.5t56.5 46.5t62.5 39t57 37t41.5 46t16 61q0 94 -125 94q-82 0 -176 -37t-168 -94v367q178 70 360 70q216 0 337.5 -107t121.5 -311q0 -77 -18 -135.5t-47.5 -92.5t-64.5 -58t-70 -39.5t-64.5 -30.5t-47.5 -37t-18 -52v-73h-311zM231 0
v326h336v-326h-336z" />
    <glyph glyph-name="at" unicode="@" horiz-adv-x="1571" 
d="M791 1298q197 0 356 -98t248.5 -270t89.5 -383q0 -225 -99.5 -357.5t-267.5 -132.5q-214 0 -235 219q-66 -153 -205 -153q-109 0 -176.5 91t-67.5 232q0 82 24.5 169t67 161t108.5 121t142 47q71 0 113.5 -39t55.5 -99l18 101h167q-15 -96 -35 -213t-28 -165t-14 -97.5
t-6 -81.5q0 -59 17.5 -83.5t61.5 -24.5q86 0 131.5 75.5t45.5 214.5q0 251 -141.5 410.5t-366.5 159.5q-228 0 -374.5 -162t-146.5 -408q0 -240 142 -391t364 -151q80 0 154 24v-213q-72 -16 -156 -16q-147 0 -274.5 55.5t-218 153t-142 236.5t-51.5 300q0 218 90.5 393.5
t250.5 275t358 99.5zM713 313q47 0 84 28.5t58.5 73.5t32.5 94t11 95q0 148 -108 148q-62 0 -107 -48t-63.5 -111t-18.5 -128q0 -18 1.5 -34.5t8.5 -39t18 -39t32.5 -28t50.5 -11.5z" />
    <glyph glyph-name="A" unicode="A" horiz-adv-x="1409" 
d="M1008 0l-70 254h-467l-70 -254h-387l453 1413h475l453 -1413h-387zM556 561h297l-144 522h-9z" />
    <glyph glyph-name="B" unicode="B" horiz-adv-x="1358" 
d="M160 0v1413h553q271 0 391.5 -96t120.5 -283q0 -105 -37.5 -176t-122.5 -115v-6q223 -60 223 -334q0 -199 -125.5 -301t-408.5 -102h-594zM518 860h246q75 0 109 29.5t34 87.5q0 119 -143 119h-246v-236zM518 336h258q86 0 125 34t39 99q0 62 -37 89.5t-127 27.5h-258
v-250z" />
    <glyph glyph-name="C" unicode="C" horiz-adv-x="1321" 
d="M743 -20q-110 0 -208 25.5t-184 82t-148.5 139t-98.5 202.5t-36 267q0 183 54.5 323.5t149.5 225t214 126.5t257 42q235 0 459 -108v-404h-6q-228 176 -444 176q-150 0 -242 -96.5t-92 -284.5t92 -284.5t242 -96.5q103 0 218 45.5t226 131.5h6v-404q-221 -108 -459 -108z
" />
    <glyph glyph-name="D" unicode="D" horiz-adv-x="1386" 
d="M160 0v1413h465q343 0 518.5 -186.5t175.5 -521.5q0 -338 -177.5 -521.5t-518.5 -183.5h-463zM518 328h103q170 0 258 96.5t88 286.5q0 183 -86.5 277.5t-259.5 94.5h-103v-755z" />
    <glyph glyph-name="E" unicode="E" horiz-adv-x="1266" 
d="M160 0v1413h975v-332h-617v-217h580v-311h-580v-219h617v-334h-975z" />
    <glyph glyph-name="F" unicode="F" horiz-adv-x="1210" 
d="M160 0v1413h975v-332h-617v-258h580v-311h-580v-512h-358z" />
    <glyph glyph-name="G" unicode="G" horiz-adv-x="1339" 
d="M754 1077q-150 0 -240 -96.5t-90 -284.5q0 -189 89.5 -286t236.5 -97q47 0 102 11v376h350v-612q-221 -108 -459 -108q-110 0 -208 25.5t-184 82t-148.5 139t-98.5 202.5t-36 267q0 183 54.5 323.5t149.5 225t214 126.5t257 42q235 0 459 -108v-398h-16
q-223 170 -432 170z" />
    <glyph glyph-name="H" unicode="H" horiz-adv-x="1462" 
d="M944 1413h359v-1413h-359v553h-426v-553h-358v1413h358v-549h426v549z" />
    <glyph glyph-name="I" unicode="I" horiz-adv-x="678" 
d="M160 0v1413h358v-1413h-358z" />
    <glyph glyph-name="J" unicode="J" horiz-adv-x="803" 
d="M240 -20q-154 0 -211 20v322q15 -2 46 -6t55.5 -6.5t43.5 -2.5q25 0 36 0.5t30.5 4.5t28.5 14t19.5 27t14.5 45t4 67v948h359v-1026q0 -185 -114 -296t-312 -111z" />
    <glyph glyph-name="K" unicode="K" horiz-adv-x="1419" 
d="M1405 0h-447l-440 773v-773h-358v1413h358v-559l420 559h455l-496 -598z" />
    <glyph glyph-name="L" unicode="L" horiz-adv-x="1092" 
d="M160 0v1413h358v-1081h543v-332h-901z" />
    <glyph glyph-name="M" unicode="M" horiz-adv-x="1915" 
d="M160 0v1413h502l292 -924l293 924h508v-1413h-356v918h-13l-284 -918h-295l-281 918h-14v-918h-352z" />
    <glyph glyph-name="N" unicode="N" horiz-adv-x="1528" 
d="M160 0v1413h346l495 -805h9v805h358v-1413h-350l-490 791h-10v-791h-358z" />
    <glyph glyph-name="O" unicode="O" horiz-adv-x="1438" 
d="M717 -20q-300 0 -474.5 196.5t-174.5 530.5t175 530.5t474 196.5q298 0 475.5 -197t177.5 -530t-177.5 -530t-475.5 -197zM719 311q130 0 207.5 105t77.5 291q0 185 -77.5 290t-207.5 105q-131 0 -207 -104.5t-76 -290.5t76 -291t207 -105z" />
    <glyph glyph-name="P" unicode="P" horiz-adv-x="1278" 
d="M160 0v1413h555q114 0 201.5 -22t147 -61.5t98 -98.5t55 -130t16.5 -159q0 -475 -537 -475h-180v-467h-356zM516 782h178q100 0 142.5 42.5t42.5 119.5q0 81 -42 116.5t-143 35.5h-178v-314z" />
    <glyph glyph-name="Q" unicode="Q" horiz-adv-x="1440" 
d="M1094 -102q122 0 190 49h16v-285q-117 -43 -229 -43q-178 0 -297 101t-136 264q-264 27 -416 220t-152 503q0 334 175 530.5t474 196.5q298 0 475.5 -197t177.5 -530q0 -286 -132.5 -474t-364.5 -237q19 -48 80 -73t139 -25zM438 707q0 -186 76 -291t207 -105
q130 0 207.5 105t77.5 291q0 185 -77.5 290t-207.5 105q-131 0 -207 -104.5t-76 -290.5z" />
    <glyph glyph-name="R" unicode="R" horiz-adv-x="1360" 
d="M1341 -2h-409l-258 510h-158v-508h-356v1413h518q280 0 417.5 -124.5t137.5 -346.5q0 -284 -223 -380zM516 1096v-314h160q113 0 158 42.5t45 119.5q0 82 -44.5 117t-158.5 35h-160z" />
    <glyph glyph-name="S" unicode="S" horiz-adv-x="1145" 
d="M555 -20q-205 0 -438 90v391h8q103 -63 222.5 -103.5t205.5 -40.5q78 0 124 33t46 88q0 45 -34.5 75.5t-89.5 49t-122 36.5t-133.5 46.5t-121.5 70.5t-89.5 117.5t-34.5 178.5q0 108 37.5 190.5t103.5 132.5t149.5 74.5t182.5 24.5q221 0 420 -105v-352h-10
q-95 63 -212 107t-200 44q-55 0 -87.5 -21.5t-32.5 -59.5q0 -30 21.5 -52t57.5 -37t82.5 -28t98 -29.5t103 -38t98 -56t82.5 -79.5t57.5 -114.5t21.5 -155.5q0 -231 -141.5 -354t-374.5 -123z" />
    <glyph glyph-name="T" unicode="T" horiz-adv-x="1122" 
d="M381 0v1081h-350v332h1061v-332h-353v-1081h-358z" />
    <glyph glyph-name="U" unicode="U" horiz-adv-x="1356" 
d="M672 -20q-278 0 -411.5 150t-133.5 429v854h358v-866q0 -99 48.5 -152t138.5 -53q97 0 148.5 53.5t51.5 151.5v866h357v-844q0 -589 -557 -589z" />
    <glyph glyph-name="V" unicode="V" horiz-adv-x="1401" 
d="M469 0l-455 1413h383l293 -1042h10l299 1042h387l-454 -1413h-463z" />
    <glyph glyph-name="W" unicode="W" horiz-adv-x="1919" 
d="M287 0l-240 1413h371l153 -1089h15l180 1089h389l180 -1089h13l153 1089h371l-242 -1413h-522l-152 946l-145 -946h-524z" />
    <glyph glyph-name="X" unicode="X" horiz-adv-x="1440" 
d="M20 0l435 707l-432 706h444l256 -446l252 446h442l-434 -706l436 -707h-442l-256 438l-256 -438h-445z" />
    <glyph glyph-name="Y" unicode="Y" horiz-adv-x="1315" 
d="M481 0v549l-483 864h399l271 -500l247 500h402l-483 -864v-549h-353z" />
    <glyph glyph-name="Z" unicode="Z" horiz-adv-x="1237" 
d="M68 0v248l600 833h-559v332h1042v-268l-567 -813h567v-332h-1083z" />
    <glyph glyph-name="bracketleft" unicode="[" horiz-adv-x="655" 
d="M154 -274v1955h440v-268h-148v-1413h148v-274h-440z" />
    <glyph glyph-name="backslash" unicode="\" horiz-adv-x="842" 
d="M567 -156l-594 1565h306l589 -1565h-301z" />
    <glyph glyph-name="bracketright" unicode="]" horiz-adv-x="655" 
d="M61 -274v274h148v1413h-148v268h441v-1955h-441z" />
    <glyph glyph-name="asciicircum" unicode="^" horiz-adv-x="1036" 
d="M47 442l471 971l471 -971h-340l-131 334l-133 -334h-338z" />
    <glyph glyph-name="underscore" unicode="_" horiz-adv-x="1206" 
d="M174 -287v287h858v-287h-858z" />
    <glyph glyph-name="grave" unicode="`" horiz-adv-x="565" 
d="M311 1118l-305 246h324l211 -246h-230z" />
    <glyph glyph-name="a" unicode="a" horiz-adv-x="1092" 
d="M1059 276h6v-231q-136 -68 -231 -68q-126 0 -171 114q-105 -65 -177 -89.5t-138 -24.5q-135 0 -216 75.5t-81 211.5q0 55 15.5 101t39 79.5t66 62.5t80.5 47.5t100 38t108 31t119 28.5q40 9 60 14v14q0 123 -147 123q-126 0 -367 -94v290q235 70 401 70q202 0 308 -109
t106 -350v-221q0 -36 1 -54t5 -42t14 -34.5t27 -10.5q29 0 72 28zM391 307q0 -44 20.5 -66t55.5 -22q66 0 172 65v196q-142 -43 -180 -64q-65 -44 -68 -109z" />
    <glyph glyph-name="b" unicode="b" horiz-adv-x="1208" 
d="M745 -23q-96 0 -173 49t-105 126v-152h-340v1413h348v-498q37 69 113.5 111.5t165.5 42.5q178 0 288.5 -148.5t110.5 -396.5q0 -249 -113 -398t-295 -149zM635 266q87 0 133.5 68.5t46.5 193.5q0 124 -46.5 192t-133.5 68t-133.5 -68t-46.5 -192q0 -125 46.5 -193.5
t133.5 -68.5z" />
    <glyph glyph-name="c" unicode="c" horiz-adv-x="969" 
d="M541 -20q-120 0 -215 42t-155.5 116.5t-92 172.5t-31.5 213q0 155 54 276t167.5 195t272.5 74q153 0 321 -59v-357h-6q-121 115 -262 115q-93 0 -153 -62.5t-60 -181.5t61 -181t154 -62q135 0 260 114h6v-356q-160 -59 -321 -59z" />
    <glyph glyph-name="d" unicode="d" horiz-adv-x="1206" 
d="M741 1413h338v-1413h-348v127q-107 -147 -280 -147q-175 0 -286.5 148t-111.5 396q0 249 113.5 398t290.5 149q87 0 161 -41t123 -118v501zM573 264q87 0 133 68.5t46 193.5q0 124 -46 192t-133 68q-88 0 -134 -68t-46 -192q0 -126 46 -194t134 -68z" />
    <glyph glyph-name="e" unicode="e" horiz-adv-x="1055" 
d="M983 588q0 -51 -10 -123h-616q18 -105 102 -158t194 -53q144 0 295 82h10v-279q-169 -77 -352 -77q-93 0 -177.5 22.5t-155 68.5t-122.5 111t-81 154.5t-29 195.5q0 124 38.5 226t104.5 169.5t154.5 104.5t189.5 37q201 0 328 -134t127 -347zM530 836q-76 0 -122.5 -45
t-55.5 -123h345q-6 81 -48.5 124.5t-118.5 43.5z" />
    <glyph glyph-name="f" unicode="f" horiz-adv-x="690" 
d="M590 1182q-41 0 -58.5 -30t-17.5 -103h166v-213h-166v-836h-344v836h-147v213h147v71q0 65 18.5 121t55 99.5t96.5 68.5t137 25q56 0 203 -21v-242q-55 11 -90 11z" />
    <glyph glyph-name="g" unicode="g" horiz-adv-x="1208" 
d="M535 -385q-196 0 -429 59v314q224 -94 402 -94q225 0 225 184v121q-17 -52 -88.5 -92.5t-175.5 -40.5q-83 0 -154.5 29t-130 87t-92 156t-33.5 225q0 129 34.5 229.5t93 159t127.5 88t145 29.5q92 0 166 -40t108 -95v115h348v-951q0 -128 -39 -222.5t-112.5 -151
t-171.5 -83t-223 -26.5zM578 326q165 0 165 229q0 227 -165 227q-166 0 -166 -227q0 -229 166 -229z" />
    <glyph glyph-name="h" unicode="h" horiz-adv-x="1214" 
d="M127 0v1413h342v-522h10q47 78 123 128t178 50q145 0 237.5 -102t92.5 -267v-700h-346v602q0 78 -41 119t-105 41q-62 0 -102.5 -41t-40.5 -119v-602h-348z" />
    <glyph glyph-name="i" unicode="i" horiz-adv-x="602" 
d="M127 1157v256h352v-256h-352zM127 0v1049h348v-1049h-348z" />
    <glyph glyph-name="j" unicode="j" horiz-adv-x="602" 
d="M125 1157v256h352v-256h-352zM156 -375q-87 0 -179 31v276q38 -10 62 -10q44 0 66 35t22 117v975h348v-1057q0 -187 -87.5 -277t-231.5 -90z" />
    <glyph glyph-name="k" unicode="k" horiz-adv-x="1184" 
d="M1188 0h-391l-322 627v-627h-348v1413h348v-696l287 332h416l-361 -396z" />
    <glyph glyph-name="l" unicode="l" horiz-adv-x="637" 
d="M111 1413h344v-1048q0 -74 17 -104t58 -30q27 0 91 11v-242q-140 -20 -203 -20q-152 0 -229.5 88t-77.5 225v1120z" />
    <glyph glyph-name="m" unicode="m" horiz-adv-x="1688" 
d="M127 0v1049h342v-142h4q90 162 264 162q91 0 147.5 -43.5t96.5 -126.5h8q55 84 117.5 127t157.5 43q152 0 234.5 -102.5t82.5 -280.5v-686h-348v649q0 58 -27.5 85.5t-72.5 27.5q-47 0 -76 -27.5t-29 -85.5v-649h-348v649q0 58 -27.5 85.5t-72.5 27.5q-47 0 -76 -27.5
t-29 -85.5v-649h-348z" />
    <glyph glyph-name="n" unicode="n" horiz-adv-x="1214" 
d="M127 0v1049h342v-158h10q47 78 123 128t178 50q145 0 237.5 -102t92.5 -267v-700h-346v602q0 78 -41 119t-105 41q-62 0 -102.5 -41t-40.5 -119v-602h-348z" />
    <glyph glyph-name="o" unicode="o" horiz-adv-x="1133" 
d="M567 -20q-240 0 -381 146t-141 396q0 249 141.5 398t380.5 149q238 0 379 -148t141 -399t-140.5 -396.5t-379.5 -145.5zM571 264q86 0 132.5 68.5t46.5 193.5q0 124 -46.5 192t-132.5 68q-88 0 -135 -68t-47 -192q0 -125 47 -193.5t135 -68.5z" />
    <glyph glyph-name="p" unicode="p" horiz-adv-x="1206" 
d="M756 1069q175 0 286 -148.5t111 -396.5q0 -250 -112.5 -398.5t-290.5 -148.5q-87 0 -160.5 41t-122.5 118v-501h-340v1414h348v-129q53 74 126 111.5t155 37.5zM635 262q87 0 133.5 68.5t46.5 193.5q0 124 -46.5 192t-133.5 68t-133.5 -68t-46.5 -192q0 -125 46.5 -193.5
t133.5 -68.5z" />
    <glyph glyph-name="q" unicode="q" horiz-adv-x="1206" 
d="M731 1049h348v-1414h-338v501q-49 -77 -123 -118t-161 -41q-177 0 -290.5 149t-113.5 398q0 248 111.5 396.5t286.5 148.5q173 0 280 -147v127zM573 262q87 0 133 68.5t46 193.5q0 124 -46 192t-133 68q-88 0 -134 -68t-46 -192q0 -126 46 -194t134 -68z" />
    <glyph glyph-name="r" unicode="r" horiz-adv-x="780" 
d="M127 0v1049h334v-199q49 68 130.5 129t174.5 90v-336q-97 -21 -179.5 -64t-111.5 -87v-582h-348z" />
    <glyph glyph-name="s" unicode="s" horiz-adv-x="965" 
d="M481 -23q-169 0 -389 58v295q84 -31 197 -55.5t174 -24.5q44 0 74 15t30 46q0 16 -9.5 30t-22.5 23t-38 19t-45 16t-54.5 16t-55.5 17q-43 14 -75.5 28.5t-69.5 39.5t-60.5 55t-39 75.5t-15.5 100.5q0 173 100 255.5t281 82.5q188 0 391 -68v-290q-106 43 -213 73.5
t-162 30.5q-37 0 -59.5 -13.5t-22.5 -37.5q0 -17 10.5 -30.5t36 -25t45 -18.5t60.5 -20q36 -11 51.5 -16.5t51 -19t54 -23t49 -27.5t47.5 -35.5t38.5 -43t32 -53t18.5 -63.5t8 -76q0 -150 -102 -243t-316 -93z" />
    <glyph glyph-name="t" unicode="t" horiz-adv-x="731" 
d="M672 836h-172v-471q0 -75 16 -104.5t57 -29.5q27 0 91 11v-242q-144 -20 -203 -20q-153 0 -231 88t-78 225v543h-123v213h123v200l348 82v-282h172v-213z" />
    <glyph glyph-name="u" unicode="u" horiz-adv-x="1212" 
d="M432 -20q-144 0 -237 102t-93 266v701h347v-603q0 -77 40.5 -118t102.5 -41q64 0 104.5 40.5t40.5 118.5v603h348v-1049h-342v158h-10q-45 -78 -121.5 -128t-179.5 -50z" />
    <glyph glyph-name="v" unicode="v" horiz-adv-x="1110" 
d="M362 0l-370 1049h375l188 -699l190 699h373l-370 -1049h-386z" />
    <glyph glyph-name="w" unicode="w" horiz-adv-x="1673" 
d="M276 -8l-268 1057h367l141 -715l162 715h315l160 -721l145 721h367l-270 -1049h-445l-119 549l-112 -557h-443z" />
    <glyph glyph-name="x" unicode="x" horiz-adv-x="1165" 
d="M1163 1049l-338 -521l338 -528h-395l-183 321l-188 -321h-393l330 528l-330 521h393l188 -312l183 312h395z" />
    <glyph glyph-name="y" unicode="y" horiz-adv-x="1069" 
d="M279 -377q-60 0 -158 10v277q70 -12 125 -12q57 0 85.5 19.5t28.5 66.5q0 16 -14 63l-354 1002h373l157 -611h19l164 611h372l-411 -1141q-59 -162 -148.5 -223.5t-238.5 -61.5z" />
    <glyph glyph-name="z" unicode="z" horiz-adv-x="1016" 
d="M934 1049v-279l-426 -473h426v-297h-854v266l456 488h-460v295h858z" />
    <glyph glyph-name="braceleft" unicode="{" horiz-adv-x="651" 
d="M451 -330q-123 0 -208 104t-85 255v385q0 101 -109 104v316q56 2 82.5 27t26.5 77v385q0 151 85 254.5t208 103.5h139v-338h-68q-40 0 -65 -29.5t-25 -76.5v-342q0 -30 -3 -51t-13.5 -52.5t-37.5 -60t-69 -53.5q42 -25 69 -54.5t37.5 -61.5t13.5 -53.5t3 -51.5v-342
q0 -48 25 -77.5t65 -29.5h68v-338h-139z" />
    <glyph glyph-name="bar" unicode="|" horiz-adv-x="639" 
d="M193 -156v1692h253v-1692h-253z" />
    <glyph glyph-name="braceright" unicode="}" horiz-adv-x="651" 
d="M61 -330v338h66q41 0 66.5 29.5t25.5 77.5v342q0 24 1 40t7.5 43t18.5 47.5t36.5 45t59.5 45.5q-43 25 -70 53.5t-37.5 60t-13 52t-2.5 51.5v342q0 47 -25.5 76.5t-66.5 29.5h-66v338h140q123 0 208 -103.5t85 -254.5v-385q0 -52 26 -77t82 -27v-316q-55 -1 -81.5 -26.5
t-26.5 -77.5v-385q0 -151 -85 -255t-208 -104h-140z" />
    <glyph glyph-name="asciitilde" unicode="~" horiz-adv-x="1198" 
d="M135 344q0 212 71 323t206 111q44 0 83.5 -15t69 -36t56.5 -42.5t58 -36.5t62 -15q86 0 86 145h238q0 -211 -71.5 -322.5t-205.5 -111.5q-43 0 -83 15t-69.5 36t-57.5 42.5t-58.5 36.5t-60.5 15q-88 0 -88 -145h-236z" />
    <glyph glyph-name="exclamdown" unicode="&#xa1;" horiz-adv-x="655" 
d="M160 512h336v-326h-336v326zM199 18h258l26 -919h-311z" />
    <glyph glyph-name="cent" unicode="&#xa2;" horiz-adv-x="1067" 
d="M647 768q-93 0 -153 -62.5t-60 -181.5t61 -181t154 -62q135 0 260 114h6v-356q-82 -31 -186 -48v-171h-295v182q-162 48 -248 188.5t-86 333.5t86 334t248 189v145h295v-135q97 -16 186 -47v-357h-6q-121 115 -262 115z" />
    <glyph glyph-name="sterling" unicode="&#xa3;" horiz-adv-x="1264" 
d="M690 1124q-79 0 -115 -32t-36 -103q0 -58 43 -147h278v-164h-198q40 -92 40 -158q0 -115 -120 -188h542v-332h-993v250q79 0 133.5 12.5t83 36t40 50t11.5 61.5q0 38 -14 86.5t-30 85t-46 96.5h-178v164h102q-47 118 -47 205q0 92 26.5 165t70.5 120t106.5 77.5t130 43.5
t144.5 13q117 0 238 -30.5t222 -81.5v-373q-83 55 -208.5 99t-225.5 44z" />
    <glyph glyph-name="currency" unicode="&#xa4;" horiz-adv-x="1405" 
d="M332 88l-215 225l112 111q-65 118 -65 256t65 256l-112 111l215 225l114 -119q123 66 256 66q135 0 256 -66l115 119l215 -225l-112 -111q65 -118 65 -256t-65 -256l112 -111l-215 -225l-115 119q-121 -66 -256 -66q-133 0 -256 66zM702 451q94 0 164 67q66 69 66 162
t-66 162q-70 67 -164 67q-93 0 -163 -67q-66 -69 -66 -162t66 -162q70 -67 163 -67z" />
    <glyph glyph-name="yen" unicode="&#xa5;" horiz-adv-x="1405" 
d="M1364 1413l-361 -645h113v-248h-235v-108h235v-248h-235v-164h-353v164h-266v248h266v108h-266v248h144l-361 645h399l271 -500l247 500h402z" />
    <glyph glyph-name="brokenbar" unicode="&#xa6;" horiz-adv-x="684" 
d="M190 774v639h304v-639h-304zM190 -156v578h304v-578h-304z" />
    <glyph glyph-name="section" unicode="&#xa7;" horiz-adv-x="979" 
d="M764 486q80 -75 80 -205q0 -77 -27.5 -136.5t-76 -94.5t-109.5 -52.5t-133 -17.5q-158 0 -303 77v258q68 -46 156 -79t149 -33q88 0 88 61q0 30 -25 49.5t-65 31t-88 23.5t-96.5 33.5t-88.5 54t-65 92.5t-25 142q0 149 80 237q-80 77 -80 206q0 77 27.5 136.5t76 94.5
t109 52.5t131.5 17.5q158 0 305 -78v-258q-69 47 -157 80.5t-150 33.5q-40 0 -64 -16t-24 -47t25 -50.5t65 -31t88.5 -23.5t97.5 -33.5t89 -53.5t65 -92t25 -142q0 -147 -80 -237zM387 715q0 -39 28.5 -62t85.5 -44q42 7 65.5 30.5t23.5 58.5q0 38 -29 61.5t-85 44.5
q-41 -8 -65 -31t-24 -58z" />
    <glyph glyph-name="dieresis" unicode="&#xa8;" horiz-adv-x="860" 
d="M121 1108v256h233v-256h-233zM504 1108v256h235v-256h-235z" />
    <glyph glyph-name="copyright" unicode="&#xa9;" horiz-adv-x="1645" 
d="M823 -20q-197 0 -367.5 99t-271 268t-100.5 364q0 145 59.5 280t159 233t236 157t284.5 59q149 0 285.5 -59t235.5 -157t158 -233t59 -280q0 -147 -59 -282t-158 -233.5t-235.5 -157t-285.5 -58.5zM823 109q123 0 236 47.5t195 128t131 192t49 234.5q0 163 -82.5 301
t-223.5 218.5t-305 80.5q-165 0 -305.5 -80.5t-222.5 -218.5t-82 -301q0 -164 82 -303t222.5 -219t305.5 -80zM827 311q-192 0 -295.5 111t-103.5 285t103.5 284.5t295.5 110.5q122 0 260 -41v-266q-43 40 -104 64t-121 24q-72 0 -116 -42t-44 -134q0 -94 44 -136.5
t116 -42.5q58 0 119 25t106 63v-262q-126 -43 -260 -43z" />
    <glyph glyph-name="ordfeminine" unicode="&#xaa;" horiz-adv-x="877" 
d="M745 874q16 0 54 23v-162q-91 -47 -160 -47q-86 0 -117 80q-128 -80 -217 -80q-93 0 -149 52.5t-56 146.5q0 55 22 98t56 70.5t88.5 50t105 37t120.5 31.5q9 2 14 3q-1 40 -28 60t-72 20q-107 0 -254 -79v200q76 34 128 48t126 14q51 0 93 -7.5t83 -29t69 -56t45 -91
t17 -132.5v-151q0 -25 0.5 -37.5t3.5 -29.5t10 -24.5t18 -7.5zM334 907q0 -27 15.5 -40.5t39.5 -10.5q38 6 117 46v126q-91 -28 -131.5 -54t-40.5 -67z" />
    <glyph glyph-name="guillemotleft" unicode="&#xab;" horiz-adv-x="1116" 
d="M471 113l-467 395l467 403v-280l-149 -123l149 -117v-278zM981 113l-467 395l467 403v-280l-150 -123l150 -117v-278z" />
    <glyph glyph-name="logicalnot" unicode="&#xac;" horiz-adv-x="1253" 
d="M723 106v355h-606v336h946v-691h-340z" />
    <glyph glyph-name="registered" unicode="&#xae;" horiz-adv-x="1251" 
d="M625 1434q144 0 266 -72.5t193 -197t71 -271.5t-71 -271.5t-193 -197t-266 -72.5t-266 72.5t-192.5 197t-70.5 271.5t70.5 271.5t192.5 197t266 72.5zM625 487q166 0 283.5 119.5t117.5 286.5t-117.5 287t-283.5 120t-283 -119.5t-117 -287.5t117 -287t283 -119zM860 977
q0 -118 -98 -156l112 -170h-159l-90 158h-45v-158h-140v498h246q82 0 128 -47.5t46 -124.5zM580 1030v-102h77q64 0 64 53q0 26 -15 37.5t-49 11.5h-77z" />
    <glyph glyph-name="macron" unicode="&#xaf;" horiz-adv-x="778" 
d="M119 1171v183h540v-183h-540z" />
    <glyph glyph-name="degree" unicode="&#xb0;" horiz-adv-x="950" 
d="M477 700q-153 0 -260.5 108t-107.5 261q0 151 107.5 258t260.5 107q151 0 258 -107t107 -258q0 -152 -107 -260.5t-258 -108.5zM476 909q65 0 111 46.5t46 112.5q0 65 -46 111t-111 46q-66 0 -112.5 -46t-46.5 -111q0 -66 46.5 -112.5t112.5 -46.5z" />
    <glyph glyph-name="plusminus" unicode="&#xb1;" horiz-adv-x="1313" 
d="M528 377v373h-411v290h411v373h258v-373h410v-290h-410v-373h-258zM119 -4v287h1077v-287h-1077z" />
    <glyph glyph-name="acute" unicode="&#xb4;" horiz-adv-x="575" 
d="M25 1118l211 246h323l-303 -246h-231z" />
    <glyph glyph-name="uni00B5" unicode="&#xb5;" horiz-adv-x="1243" 
d="M190 -266v1265h297v-542q0 -80 41 -123t105 -43q71 0 111 42.5t40 123.5v542h297v-999h-297v78q-92 -101 -202 -101h-103l-12 -243h-277z" />
    <glyph glyph-name="paragraph" unicode="&#xb6;" horiz-adv-x="1198" 
d="M463 -287v910q-107 0 -199 45.5t-150.5 137.5t-58.5 212t58.5 212t150.5 137.5t199 45.5h190v-1700h-190zM815 -287v1700h191v-1700h-191z" />
    <glyph glyph-name="periodcentered" unicode="&#xb7;" horiz-adv-x="614" 
d="M313 586q-83 0 -135.5 50.5t-52.5 123.5q0 82 52.5 135t135.5 53q73 0 123.5 -53t50.5 -135q0 -71 -50.5 -122.5t-123.5 -51.5z" />
    <glyph glyph-name="cedilla" unicode="&#xb8;" horiz-adv-x="561" 
d="M270 -483q-88 0 -188 24v176q105 -39 174 -39q80 0 80 54q0 13 -4.5 23.5t-16.5 19t-23 15t-33 13.5t-36.5 11.5t-44.5 12.5t-47 13l88 160h186l-73 -106q85 -27 134.5 -72t49.5 -125q0 -90 -65.5 -135t-180.5 -45z" />
    <glyph glyph-name="ordmasculine" unicode="&#xba;" horiz-adv-x="770" 
d="M383 696q-152 0 -240 100t-88 269t88 269t240 100t242 -100t90 -269t-90 -269t-242 -100zM385 877q60 0 95.5 51t35.5 137t-35.5 137t-95.5 51t-95.5 -51t-35.5 -137t35.5 -137t95.5 -51z" />
    <glyph glyph-name="guillemotright" unicode="&#xbb;" horiz-adv-x="1122" 
d="M137 113v288l150 107l-150 113v290l467 -403zM647 113v288l150 107l-150 113v290l467 -403z" />
    <glyph glyph-name="questiondown" unicode="&#xbf;" horiz-adv-x="940" 
d="M709 512v-326h-336v326h336zM696 14v-151q0 -50 -16 -90t-41.5 -65.5t-57 -46.5t-62.5 -39t-56.5 -37t-41.5 -46t-16 -61q0 -94 125 -94q82 0 176 37t168 94v-367q-178 -70 -360 -70q-216 0 -337.5 107t-121.5 311q0 77 18 135.5t47.5 92.5t64.5 58t70 39.5t64.5 30.5
t47.5 37t18 52v73h311z" />
    <glyph glyph-name="Agrave" unicode="&#xc0;" horiz-adv-x="1409" 
d="M822 1531h-230l-305 246h324zM1008 0l-70 254h-467l-70 -254h-387l453 1413h475l453 -1413h-387zM556 561h297l-144 522h-9z" />
    <glyph glyph-name="Aacute" unicode="&#xc1;" horiz-adv-x="1409" 
d="M1125 1777l-303 -246h-231l211 246h323zM1008 0l-70 254h-467l-70 -254h-387l453 1413h475l453 -1413h-387zM556 561h297l-144 522h-9z" />
    <glyph glyph-name="Acircumflex" unicode="&#xc2;" horiz-adv-x="1409" 
d="M707 1654l-86 -137h-231l213 260h208l216 -260h-234zM1008 0l-70 254h-467l-70 -254h-387l453 1413h475l453 -1413h-387zM556 561h297l-144 522h-9z" />
    <glyph glyph-name="Atilde" unicode="&#xc3;" horiz-adv-x="1409" 
d="M588 1599q-27 0 -48.5 -20t-43.5 -68l-156 92q90 193 244 193q49 0 97.5 -20t86.5 -40t62 -20q45 0 90 84l151 -93q-86 -188 -237 -188q-50 0 -99 20t-87 40t-60 20zM1008 0l-70 254h-467l-70 -254h-387l453 1413h475l453 -1413h-387zM556 561h297l-144 522h-9z" />
    <glyph glyph-name="Adieresis" unicode="&#xc4;" horiz-adv-x="1409" 
d="M633 1777v-256h-270v256h270zM1053 1777v-256h-272v256h272zM1008 0l-70 254h-467l-70 -254h-387l453 1413h475l453 -1413h-387zM556 561h297l-144 522h-9z" />
    <glyph glyph-name="Aring" unicode="&#xc5;" horiz-adv-x="1409" 
d="M14 0l453 1413h29q-25 49 -25 107q0 97 68 164t166 67q97 0 165 -67t68 -164q0 -58 -25 -107h29l453 -1413h-387l-70 254h-467l-70 -254h-387zM705 1415q43 0 73.5 30.5t30.5 72.5q0 43 -30.5 72.5t-73.5 29.5q-45 0 -74 -29.5t-29 -72.5q0 -44 29 -73.5t74 -29.5z
M557 561h295l-143 522h-9z" />
    <glyph glyph-name="AE" unicode="&#xc6;" horiz-adv-x="2044" 
d="M1913 1081h-617v-217h580v-311h-580v-219h617v-334h-975v287h-431l-93 -287h-406l543 1413h1362v-332zM938 592v489h-174l-158 -489h332z" />
    <glyph glyph-name="Ccedilla" unicode="&#xc7;" horiz-adv-x="1321" 
d="M752 1077q-150 0 -242 -96.5t-92 -284.5t92 -284.5t242 -96.5q103 0 218 45.5t226 131.5h6v-404q-186 -91 -389 -105l-61 -89q85 -27 134.5 -72t49.5 -125q0 -90 -65.5 -135t-180.5 -45q-88 0 -188 24v176q105 -39 174 -39q80 0 80 54q0 13 -4.5 23.5t-16.5 19t-23 15
t-33 13.5t-36.5 11.5t-44.5 12.5t-47 13l81 147q-95 13 -178 46t-154.5 92t-122.5 138.5t-80 190t-29 242.5q0 183 54.5 323.5t149.5 225t214 126.5t257 42q235 0 459 -108v-404h-6q-228 176 -444 176z" />
    <glyph glyph-name="Egrave" unicode="&#xc8;" horiz-adv-x="1266" 
d="M518 1531l-305 246h324l211 -246h-230zM160 0v1413h975v-332h-617v-217h580v-311h-580v-219h617v-334h-975z" />
    <glyph glyph-name="Eacute" unicode="&#xc9;" horiz-adv-x="1266" 
d="M517 1531l211 246h323l-303 -246h-231zM160 0v1413h975v-332h-617v-217h580v-311h-580v-219h617v-334h-975z" />
    <glyph glyph-name="Ecircumflex" unicode="&#xca;" horiz-adv-x="1266" 
d="M316 1517l213 260h208l216 -260h-234l-86 137l-86 -137h-231zM160 0v1413h975v-332h-617v-217h580v-311h-580v-219h617v-334h-975z" />
    <glyph glyph-name="Edieresis" unicode="&#xcb;" horiz-adv-x="1266" 
d="M289 1521v256h270v-256h-270zM707 1521v256h272v-256h-272zM160 0v1413h975v-332h-617v-217h580v-311h-580v-219h617v-334h-975z" />
    <glyph glyph-name="Igrave" unicode="&#xcc;" horiz-adv-x="678" 
d="M223 1531l-305 246h324l211 -246h-230zM160 0v1413h358v-1413h-358z" />
    <glyph glyph-name="Iacute" unicode="&#xcd;" horiz-adv-x="678" 
d="M222 1531l211 246h323l-303 -246h-231zM160 0v1413h358v-1413h-358z" />
    <glyph glyph-name="Icircumflex" unicode="&#xce;" horiz-adv-x="678" 
d="M21 1517l213 260h208l216 -260h-234l-86 137l-86 -137h-231zM160 0v1413h358v-1413h-358z" />
    <glyph glyph-name="Idieresis" unicode="&#xcf;" horiz-adv-x="678" 
d="M-6 1521v256h270v-256h-270zM412 1521v256h272v-256h-272zM160 0v1413h358v-1413h-358z" />
    <glyph glyph-name="Eth" unicode="&#xd0;" horiz-adv-x="1386" 
d="M625 1413q343 0 518.5 -186.5t175.5 -521.5q0 -338 -177.5 -521.5t-518.5 -183.5h-463v625h-100v164h100v624h465zM621 328q170 0 258 96.5t88 286.5q0 183 -86.5 277.5t-259.5 94.5h-103v-294h150v-164h-150v-297h103z" />
    <glyph glyph-name="Ntilde" unicode="&#xd1;" horiz-adv-x="1528" 
d="M553 1511l-156 92q90 193 244 193q49 0 97.5 -20t86.5 -40t62 -20q45 0 90 84l151 -93q-86 -188 -237 -188q-50 0 -99 20t-87 40t-60 20q-27 0 -48.5 -20t-43.5 -68zM160 0v1413h346l495 -805h9v805h358v-1413h-350l-490 791h-10v-791h-358z" />
    <glyph glyph-name="Ograve" unicode="&#xd2;" horiz-adv-x="1438" 
d="M604 1531l-305 246h324l211 -246h-230zM717 -20q-300 0 -474.5 196.5t-174.5 530.5t175 530.5t474 196.5q298 0 475.5 -197t177.5 -530t-177.5 -530t-475.5 -197zM719 311q130 0 207.5 105t77.5 291q0 185 -77.5 290t-207.5 105q-131 0 -207 -104.5t-76 -290.5t76 -291
t207 -105z" />
    <glyph glyph-name="Oacute" unicode="&#xd3;" horiz-adv-x="1438" 
d="M603 1531l211 246h323l-303 -246h-231zM717 -20q-300 0 -474.5 196.5t-174.5 530.5t175 530.5t474 196.5q298 0 475.5 -197t177.5 -530t-177.5 -530t-475.5 -197zM719 311q130 0 207.5 105t77.5 291q0 185 -77.5 290t-207.5 105q-131 0 -207 -104.5t-76 -290.5t76 -291
t207 -105z" />
    <glyph glyph-name="Ocircumflex" unicode="&#xd4;" horiz-adv-x="1438" 
d="M402 1517l213 260h208l216 -260h-234l-86 137l-86 -137h-231zM717 -20q-300 0 -474.5 196.5t-174.5 530.5t175 530.5t474 196.5q298 0 475.5 -197t177.5 -530t-177.5 -530t-475.5 -197zM719 311q130 0 207.5 105t77.5 291q0 185 -77.5 290t-207.5 105q-131 0 -207 -104.5
t-76 -290.5t76 -291t207 -105z" />
    <glyph glyph-name="Otilde" unicode="&#xd5;" horiz-adv-x="1438" 
d="M508 1511l-156 92q90 193 244 193q49 0 97.5 -20t86.5 -40t62 -20q45 0 90 84l151 -93q-86 -188 -237 -188q-50 0 -99 20t-87 40t-60 20q-27 0 -48.5 -20t-43.5 -68zM717 -20q-300 0 -474.5 196.5t-174.5 530.5t175 530.5t474 196.5q298 0 475.5 -197t177.5 -530
t-177.5 -530t-475.5 -197zM719 311q130 0 207.5 105t77.5 291q0 185 -77.5 290t-207.5 105q-131 0 -207 -104.5t-76 -290.5t76 -291t207 -105z" />
    <glyph glyph-name="Odieresis" unicode="&#xd6;" horiz-adv-x="1438" 
d="M375 1521v256h270v-256h-270zM793 1521v256h272v-256h-272zM717 -20q-300 0 -474.5 196.5t-174.5 530.5t175 530.5t474 196.5q298 0 475.5 -197t177.5 -530t-177.5 -530t-475.5 -197zM719 311q130 0 207.5 105t77.5 291q0 185 -77.5 290t-207.5 105q-131 0 -207 -104.5
t-76 -290.5t76 -291t207 -105z" />
    <glyph glyph-name="multiply" unicode="&#xd7;" horiz-adv-x="1006" 
d="M268 47l-186 207l237 262l-237 264l182 203l238 -264l237 264l185 -205l-238 -264l238 -264l-183 -203l-237 264z" />
    <glyph glyph-name="Oslash" unicode="&#xd8;" horiz-adv-x="1438" 
d="M1259 1147q111 -180 111 -440q0 -333 -177.5 -530t-475.5 -197q-235 0 -395 123l-82 -91l-150 158l87 96q-109 180 -109 441q0 334 175 530.5t474 196.5q234 0 398 -125l83 92l148 -158zM436 707q0 -79 13 -138l430 478q-67 55 -160 55q-131 0 -207 -104.5t-76 -290.5z
M719 311q130 0 207.5 105t77.5 291q0 75 -14 140l-432 -481q67 -55 161 -55z" />
    <glyph glyph-name="Ugrave" unicode="&#xd9;" horiz-adv-x="1356" 
d="M563 1531l-305 246h324l211 -246h-230zM672 -20q-278 0 -411.5 150t-133.5 429v854h358v-866q0 -99 48.5 -152t138.5 -53q97 0 148.5 53.5t51.5 151.5v866h357v-844q0 -589 -557 -589z" />
    <glyph glyph-name="Uacute" unicode="&#xda;" horiz-adv-x="1356" 
d="M562 1531l211 246h323l-303 -246h-231zM672 -20q-278 0 -411.5 150t-133.5 429v854h358v-866q0 -99 48.5 -152t138.5 -53q97 0 148.5 53.5t51.5 151.5v866h357v-844q0 -589 -557 -589z" />
    <glyph glyph-name="Ucircumflex" unicode="&#xdb;" horiz-adv-x="1356" 
d="M361 1517l213 260h208l216 -260h-234l-86 137l-86 -137h-231zM672 -20q-278 0 -411.5 150t-133.5 429v854h358v-866q0 -99 48.5 -152t138.5 -53q97 0 148.5 53.5t51.5 151.5v866h357v-844q0 -589 -557 -589z" />
    <glyph glyph-name="Udieresis" unicode="&#xdc;" horiz-adv-x="1356" 
d="M334 1521v256h270v-256h-270zM752 1521v256h272v-256h-272zM672 -20q-278 0 -411.5 150t-133.5 429v854h358v-866q0 -99 48.5 -152t138.5 -53q97 0 148.5 53.5t51.5 151.5v866h357v-844q0 -589 -557 -589z" />
    <glyph glyph-name="Yacute" unicode="&#xdd;" horiz-adv-x="1315" 
d="M543 1528l209 246h325l-305 -246h-229zM481 0v549l-483 864h399l271 -500l247 500h402l-483 -864v-549h-353z" />
    <glyph glyph-name="Thorn" unicode="&#xde;" horiz-adv-x="1223" 
d="M160 0v1413h301v-108h262q94 0 172.5 -26.5t142.5 -82.5t100 -153t36 -228q0 -106 -24.5 -188.5t-66 -135t-100.5 -86.5t-122.5 -47.5t-137.5 -13.5h-262v-344h-301zM461 668h244q83 0 125 40t42 113q0 72 -42.5 112t-124.5 40h-244v-305z" />
    <glyph glyph-name="germandbls" unicode="&#xdf;" horiz-adv-x="1294" 
d="M651 336h109q88 0 126 20.5t38 63.5q0 37 -28.5 63.5t-69 44t-81.5 39t-69.5 62t-28.5 98.5q0 55 25 90.5t61 51.5t72 29.5t61 36.5t25 60q0 95 -170 95q-131 0 -184.5 -63.5t-53.5 -229.5v-797h-358v793q0 620 577 620q234 0 361 -95.5t127 -262.5q0 -61 -18 -106.5
t-44.5 -69t-57.5 -43.5t-57.5 -31.5t-44.5 -29.5t-18 -42q0 -22 16.5 -37.5t43.5 -26t59.5 -22t64.5 -32.5t59 -51.5t43.5 -84.5t16.5 -125q0 -186 -122 -270t-394 -84h-86v336z" />
    <glyph glyph-name="agrave" unicode="&#xe0;" horiz-adv-x="1092" 
d="M658 1167h-230l-305 246h324zM1059 276h6v-231q-136 -68 -231 -68q-126 0 -171 114q-105 -65 -177 -89.5t-138 -24.5q-135 0 -216 75.5t-81 211.5q0 55 15.5 101t39 79.5t66 62.5t80.5 47.5t100 38t108 31t119 28.5q40 9 60 14v14q0 123 -147 123q-126 0 -367 -94v290
q235 70 401 70q202 0 308 -109t106 -350v-221q0 -36 1 -54t5 -42t14 -34.5t27 -10.5q29 0 72 28zM391 307q0 -44 20.5 -66t55.5 -22q66 0 172 65v196q-142 -43 -180 -64q-65 -44 -68 -109z" />
    <glyph glyph-name="aacute" unicode="&#xe1;" horiz-adv-x="1092" 
d="M961 1413l-303 -246h-231l211 246h323zM1059 276h6v-231q-136 -68 -231 -68q-126 0 -171 114q-105 -65 -177 -89.5t-138 -24.5q-135 0 -216 75.5t-81 211.5q0 55 15.5 101t39 79.5t66 62.5t80.5 47.5t100 38t108 31t119 28.5q40 9 60 14v14q0 123 -147 123
q-126 0 -367 -94v290q235 70 401 70q202 0 308 -109t106 -350v-221q0 -36 1 -54t5 -42t14 -34.5t27 -10.5q29 0 72 28zM391 307q0 -44 20.5 -66t55.5 -22q66 0 172 65v196q-142 -43 -180 -64q-65 -44 -68 -109z" />
    <glyph glyph-name="acircumflex" unicode="&#xe2;" horiz-adv-x="1092" 
d="M543 1290l-86 -137h-231l213 260h208l216 -260h-234zM1059 276h6v-231q-136 -68 -231 -68q-126 0 -171 114q-105 -65 -177 -89.5t-138 -24.5q-135 0 -216 75.5t-81 211.5q0 55 15.5 101t39 79.5t66 62.5t80.5 47.5t100 38t108 31t119 28.5q40 9 60 14v14q0 123 -147 123
q-126 0 -367 -94v290q235 70 401 70q202 0 308 -109t106 -350v-221q0 -36 1 -54t5 -42t14 -34.5t27 -10.5q29 0 72 28zM391 307q0 -44 20.5 -66t55.5 -22q66 0 172 65v196q-142 -43 -180 -64q-65 -44 -68 -109z" />
    <glyph glyph-name="atilde" unicode="&#xe3;" horiz-adv-x="1092" 
d="M424 1235q-27 0 -48.5 -20t-43.5 -68l-156 92q90 193 244 193q49 0 97.5 -20t86.5 -40t62 -20q45 0 90 84l151 -93q-86 -188 -237 -188q-50 0 -99 20t-87 40t-60 20zM1059 276h6v-231q-136 -68 -231 -68q-126 0 -171 114q-105 -65 -177 -89.5t-138 -24.5
q-135 0 -216 75.5t-81 211.5q0 55 15.5 101t39 79.5t66 62.5t80.5 47.5t100 38t108 31t119 28.5q40 9 60 14v14q0 123 -147 123q-126 0 -367 -94v290q235 70 401 70q202 0 308 -109t106 -350v-221q0 -36 1 -54t5 -42t14 -34.5t27 -10.5q29 0 72 28zM391 307q0 -44 20.5 -66
t55.5 -22q66 0 172 65v196q-142 -43 -180 -64q-65 -44 -68 -109z" />
    <glyph glyph-name="adieresis" unicode="&#xe4;" horiz-adv-x="1092" 
d="M469 1413v-256h-270v256h270zM889 1413v-256h-272v256h272zM1059 276h6v-231q-136 -68 -231 -68q-126 0 -171 114q-105 -65 -177 -89.5t-138 -24.5q-135 0 -216 75.5t-81 211.5q0 55 15.5 101t39 79.5t66 62.5t80.5 47.5t100 38t108 31t119 28.5q40 9 60 14v14
q0 123 -147 123q-126 0 -367 -94v290q235 70 401 70q202 0 308 -109t106 -350v-221q0 -36 1 -54t5 -42t14 -34.5t27 -10.5q29 0 72 28zM391 307q0 -44 20.5 -66t55.5 -22q66 0 172 65v196q-142 -43 -180 -64q-65 -44 -68 -109z" />
    <glyph glyph-name="aring" unicode="&#xe5;" horiz-adv-x="1092" 
d="M1059 276h6v-231q-136 -68 -231 -68q-126 0 -171 114q-105 -65 -177 -89.5t-138 -24.5q-135 0 -216 75.5t-81 211.5q0 55 15.5 101t39 79.5t66 62.5t80.5 47.5t100 38t108 31t119 28.5q40 9 60 14v14q0 123 -147 123q-126 0 -367 -94v290q130 38 232 55q-50 62 -50 146
q0 96 68.5 163.5t165.5 67.5t165 -67t68 -164q0 -91 -62 -160q228 -86 228 -430v-221q0 -36 1 -54t5 -42t14 -34.5t27 -10.5q29 0 72 28zM541 1300q-43 0 -72.5 -29.5t-29.5 -72.5t29.5 -73t72.5 -30q42 0 72 30.5t30 72.5q0 43 -29.5 72.5t-72.5 29.5zM391 307
q0 -44 20.5 -66t55.5 -22q66 0 172 65v196q-142 -43 -180 -64q-65 -44 -68 -109z" />
    <glyph glyph-name="ae" unicode="&#xe6;" horiz-adv-x="1642" 
d="M1567 588q0 -61 -13 -123h-603q22 -103 89 -149t179 -46q124 0 323 64v-305q-169 -49 -338 -49q-297 0 -450 166q-125 -95 -214 -132t-180 -37q-145 0 -227 75t-82 212q0 68 21 123t62.5 94.5t91 69.5t120 54t134.5 41.5t149 37.5q7 1 10 2q-2 58 -40.5 87.5t-102.5 29.5
q-62 0 -160 -28t-211 -87v291q109 48 185.5 69t181.5 21q215 0 310 -109q127 109 310 109q201 0 328 -134t127 -347zM1112 836q-138 0 -165 -168h320q-11 82 -47 125t-108 43zM467 219q61 0 195 77q-33 90 -37 200q-131 -44 -182.5 -83.5t-51.5 -105.5q0 -44 20.5 -66
t55.5 -22z" />
    <glyph glyph-name="ccedilla" unicode="&#xe7;" horiz-adv-x="969" 
d="M594 768q-93 0 -153 -62.5t-60 -181.5t61 -181t154 -62q135 0 260 114h6v-356q-109 -39 -229 -53l-63 -92q85 -27 134.5 -72t49.5 -125q0 -90 -65.5 -135t-180.5 -45q-88 0 -188 24v176q105 -39 174 -39q80 0 80 54q0 13 -4.5 23.5t-16.5 19t-23 15t-33 13.5t-36.5 11.5
t-44.5 12.5t-47 13l81 147q-195 30 -299 177t-104 360q0 155 54 276t167.5 195t272.5 74q153 0 321 -59v-357h-6q-121 115 -262 115z" />
    <glyph glyph-name="egrave" unicode="&#xe8;" horiz-adv-x="1055" 
d="M645 1167h-230l-305 246h324zM983 588q0 -51 -10 -123h-616q18 -105 102 -158t194 -53q144 0 295 82h10v-279q-169 -77 -352 -77q-93 0 -177.5 22.5t-155 68.5t-122.5 111t-81 154.5t-29 195.5q0 124 38.5 226t104.5 169.5t154.5 104.5t189.5 37q201 0 328 -134t127 -347
zM530 836q-76 0 -122.5 -45t-55.5 -123h345q-6 81 -48.5 124.5t-118.5 43.5z" />
    <glyph glyph-name="eacute" unicode="&#xe9;" horiz-adv-x="1055" 
d="M948 1413l-303 -246h-231l211 246h323zM983 588q0 -51 -10 -123h-616q18 -105 102 -158t194 -53q144 0 295 82h10v-279q-169 -77 -352 -77q-93 0 -177.5 22.5t-155 68.5t-122.5 111t-81 154.5t-29 195.5q0 124 38.5 226t104.5 169.5t154.5 104.5t189.5 37q201 0 328 -134
t127 -347zM530 836q-76 0 -122.5 -45t-55.5 -123h345q-6 81 -48.5 124.5t-118.5 43.5z" />
    <glyph glyph-name="ecircumflex" unicode="&#xea;" horiz-adv-x="1055" 
d="M530 1290l-86 -137h-231l213 260h208l216 -260h-234zM983 588q0 -51 -10 -123h-616q18 -105 102 -158t194 -53q144 0 295 82h10v-279q-169 -77 -352 -77q-93 0 -177.5 22.5t-155 68.5t-122.5 111t-81 154.5t-29 195.5q0 124 38.5 226t104.5 169.5t154.5 104.5t189.5 37
q201 0 328 -134t127 -347zM530 836q-76 0 -122.5 -45t-55.5 -123h345q-6 81 -48.5 124.5t-118.5 43.5z" />
    <glyph glyph-name="edieresis" unicode="&#xeb;" horiz-adv-x="1055" 
d="M456 1413v-256h-270v256h270zM876 1413v-256h-272v256h272zM983 588q0 -51 -10 -123h-616q18 -105 102 -158t194 -53q144 0 295 82h10v-279q-169 -77 -352 -77q-93 0 -177.5 22.5t-155 68.5t-122.5 111t-81 154.5t-29 195.5q0 124 38.5 226t104.5 169.5t154.5 104.5
t189.5 37q201 0 328 -134t127 -347zM530 836q-76 0 -122.5 -45t-55.5 -123h345q-6 81 -48.5 124.5t-118.5 43.5z" />
    <glyph glyph-name="igrave" unicode="&#xec;" horiz-adv-x="602" 
d="M188 1167l-305 246h324l211 -246h-230zM127 0v1049h348v-1049h-348z" />
    <glyph glyph-name="iacute" unicode="&#xed;" horiz-adv-x="602" 
d="M187 1167l211 246h323l-303 -246h-231zM127 0v1049h348v-1049h-348z" />
    <glyph glyph-name="icircumflex" unicode="&#xee;" horiz-adv-x="602" 
d="M-14 1153l213 260h208l216 -260h-234l-86 137l-86 -137h-231zM127 0v1049h348v-1049h-348z" />
    <glyph glyph-name="idieresis" unicode="&#xef;" horiz-adv-x="602" 
d="M-41 1157v256h270v-256h-270zM377 1157v256h272v-256h-272zM127 0v1049h348v-1049h-348z" />
    <glyph glyph-name="eth" unicode="&#xf0;" horiz-adv-x="1106" 
d="M784 1270q277 -328 277 -699q0 -273 -141.5 -432t-368.5 -159q-142 0 -256.5 61.5t-182 181.5t-67.5 279q0 111 34 198.5t93 141.5t135.5 82t165.5 28q104 0 179 -40q-60 147 -177 269l-254 -100l-28 123l212 45q-74 66 -217 164h459q42 -39 74 -73l240 94l30 -123z
M559 295q70 0 116 56t46 141q0 82 -45.5 135t-116.5 53q-73 0 -121.5 -53.5t-48.5 -134.5q0 -84 49.5 -140.5t120.5 -56.5z" />
    <glyph glyph-name="ntilde" unicode="&#xf1;" horiz-adv-x="1214" 
d="M395 1147l-156 92q90 193 244 193q49 0 97.5 -20t86.5 -40t62 -20q45 0 90 84l151 -93q-86 -188 -237 -188q-50 0 -99 20t-87 40t-60 20q-27 0 -48.5 -20t-43.5 -68zM127 0v1049h342v-158h10q47 78 123 128t178 50q145 0 237.5 -102t92.5 -267v-700h-346v602
q0 78 -41 119t-105 41q-62 0 -102.5 -41t-40.5 -119v-602h-348z" />
    <glyph glyph-name="ograve" unicode="&#xf2;" horiz-adv-x="1133" 
d="M454 1167l-305 246h324l211 -246h-230zM567 -20q-240 0 -381 146t-141 396q0 249 141.5 398t380.5 149q238 0 379 -148t141 -399t-140.5 -396.5t-379.5 -145.5zM571 264q86 0 132.5 68.5t46.5 193.5q0 124 -46.5 192t-132.5 68q-88 0 -135 -68t-47 -192q0 -125 47 -193.5
t135 -68.5z" />
    <glyph glyph-name="oacute" unicode="&#xf3;" horiz-adv-x="1133" 
d="M453 1167l211 246h323l-303 -246h-231zM567 -20q-240 0 -381 146t-141 396q0 249 141.5 398t380.5 149q238 0 379 -148t141 -399t-140.5 -396.5t-379.5 -145.5zM571 264q86 0 132.5 68.5t46.5 193.5q0 124 -46.5 192t-132.5 68q-88 0 -135 -68t-47 -192q0 -125 47 -193.5
t135 -68.5z" />
    <glyph glyph-name="ocircumflex" unicode="&#xf4;" horiz-adv-x="1133" 
d="M252 1153l213 260h208l216 -260h-234l-86 137l-86 -137h-231zM567 -20q-240 0 -381 146t-141 396q0 249 141.5 398t380.5 149q238 0 379 -148t141 -399t-140.5 -396.5t-379.5 -145.5zM571 264q86 0 132.5 68.5t46.5 193.5q0 124 -46.5 192t-132.5 68q-88 0 -135 -68
t-47 -192q0 -125 47 -193.5t135 -68.5z" />
    <glyph glyph-name="otilde" unicode="&#xf5;" horiz-adv-x="1133" 
d="M358 1147l-156 92q90 193 244 193q49 0 97.5 -20t86.5 -40t62 -20q45 0 90 84l151 -93q-86 -188 -237 -188q-50 0 -99 20t-87 40t-60 20q-27 0 -48.5 -20t-43.5 -68zM567 -20q-240 0 -381 146t-141 396q0 249 141.5 398t380.5 149q238 0 379 -148t141 -399t-140.5 -396.5
t-379.5 -145.5zM571 264q86 0 132.5 68.5t46.5 193.5q0 124 -46.5 192t-132.5 68q-88 0 -135 -68t-47 -192q0 -125 47 -193.5t135 -68.5z" />
    <glyph glyph-name="odieresis" unicode="&#xf6;" horiz-adv-x="1133" 
d="M225 1157v256h270v-256h-270zM643 1157v256h272v-256h-272zM567 -20q-240 0 -381 146t-141 396q0 249 141.5 398t380.5 149q238 0 379 -148t141 -399t-140.5 -396.5t-379.5 -145.5zM571 264q86 0 132.5 68.5t46.5 193.5q0 124 -46.5 192t-132.5 68q-88 0 -135 -68
t-47 -192q0 -125 47 -193.5t135 -68.5z" />
    <glyph glyph-name="divide" unicode="&#xf7;" horiz-adv-x="1016" 
d="M375 786v250h266v-250h-266zM82 373v291h852v-291h-852zM375 0v250h266v-250h-266z" />
    <glyph glyph-name="oslash" unicode="&#xf8;" horiz-adv-x="1133" 
d="M963 902q124 -146 124 -380q0 -251 -140.5 -396.5t-379.5 -145.5q-194 0 -326 98l-84 -97l-66 70l80 91q-126 145 -126 380q0 249 141.5 398t380.5 149q196 0 327 -102l86 98l64 -70zM389 526q0 -66 14 -119l287 328q-45 51 -119 51q-88 0 -135 -68t-47 -192zM571 264
q86 0 132.5 68.5t46.5 193.5q0 64 -14 117l-287 -328q46 -51 122 -51z" />
    <glyph glyph-name="ugrave" unicode="&#xf9;" horiz-adv-x="1212" 
d="M491 1167l-305 246h324l211 -246h-230zM432 -20q-144 0 -237 102t-93 266v701h347v-603q0 -77 40.5 -118t102.5 -41q64 0 104.5 40.5t40.5 118.5v603h348v-1049h-342v158h-10q-45 -78 -121.5 -128t-179.5 -50z" />
    <glyph glyph-name="uacute" unicode="&#xfa;" horiz-adv-x="1212" 
d="M490 1167l211 246h323l-303 -246h-231zM432 -20q-144 0 -237 102t-93 266v701h347v-603q0 -77 40.5 -118t102.5 -41q64 0 104.5 40.5t40.5 118.5v603h348v-1049h-342v158h-10q-45 -78 -121.5 -128t-179.5 -50z" />
    <glyph glyph-name="ucircumflex" unicode="&#xfb;" horiz-adv-x="1212" 
d="M289 1153l213 260h208l216 -260h-234l-86 137l-86 -137h-231zM432 -20q-144 0 -237 102t-93 266v701h347v-603q0 -77 40.5 -118t102.5 -41q64 0 104.5 40.5t40.5 118.5v603h348v-1049h-342v158h-10q-45 -78 -121.5 -128t-179.5 -50z" />
    <glyph glyph-name="udieresis" unicode="&#xfc;" horiz-adv-x="1212" 
d="M262 1157v256h270v-256h-270zM680 1157v256h272v-256h-272zM432 -20q-144 0 -237 102t-93 266v701h347v-603q0 -77 40.5 -118t102.5 -41q64 0 104.5 40.5t40.5 118.5v603h348v-1049h-342v158h-10q-45 -78 -121.5 -128t-179.5 -50z" />
    <glyph glyph-name="yacute" unicode="&#xfd;" horiz-adv-x="1069" 
d="M419 1167l211 246h323l-303 -246h-231zM279 -377q-60 0 -158 10v277q70 -12 125 -12q57 0 85.5 19.5t28.5 66.5q0 16 -14 63l-354 1002h373l157 -611h19l164 611h372l-411 -1141q-59 -162 -148.5 -223.5t-238.5 -61.5z" />
    <glyph glyph-name="thorn" unicode="&#xfe;" horiz-adv-x="1208" 
d="M758 1069q175 0 286 -148.5t111 -396.5q0 -250 -112.5 -398.5t-290.5 -148.5q-86 0 -159.5 41t-123.5 118v-501h-340v1778h348v-493q53 74 126 111.5t155 37.5zM637 262q86 0 132 68.5t46 193.5q0 124 -46 192t-132 68q-88 0 -135 -68t-47 -192q0 -125 46.5 -193.5
t135.5 -68.5z" />
    <glyph glyph-name="ydieresis" unicode="&#xff;" horiz-adv-x="1069" 
d="M191 1157v256h270v-256h-270zM609 1157v256h272v-256h-272zM279 -377q-60 0 -158 10v277q70 -12 125 -12q57 0 85.5 19.5t28.5 66.5q0 16 -14 63l-354 1002h373l157 -611h19l164 611h372l-411 -1141q-59 -162 -148.5 -223.5t-238.5 -61.5z" />
    <glyph glyph-name="Amacron" unicode="&#x100;" horiz-adv-x="1409" 
d="M1029 1718v-183h-645v183h645zM1008 0l-70 254h-467l-70 -254h-387l453 1413h475l453 -1413h-387zM556 561h297l-144 522h-9z" />
    <glyph glyph-name="amacron" unicode="&#x101;" horiz-adv-x="1092" 
d="M865 1354v-183h-645v183h645zM1059 276h6v-231q-136 -68 -231 -68q-126 0 -171 114q-105 -65 -177 -89.5t-138 -24.5q-135 0 -216 75.5t-81 211.5q0 55 15.5 101t39 79.5t66 62.5t80.5 47.5t100 38t108 31t119 28.5q40 9 60 14v14q0 123 -147 123q-126 0 -367 -94v290
q235 70 401 70q202 0 308 -109t106 -350v-221q0 -36 1 -54t5 -42t14 -34.5t27 -10.5q29 0 72 28zM391 307q0 -44 20.5 -66t55.5 -22q66 0 172 65v196q-142 -43 -180 -64q-65 -44 -68 -109z" />
    <glyph glyph-name="Abreve" unicode="&#x102;" horiz-adv-x="1409" 
d="M703 1507q-136 0 -214 72.5t-78 197.5h196q0 -127 94 -127q97 0 97 127h206q0 -124 -82.5 -197t-218.5 -73zM1008 0l-70 254h-467l-70 -254h-387l453 1413h475l453 -1413h-387zM556 561h297l-144 522h-9z" />
    <glyph glyph-name="abreve" unicode="&#x103;" horiz-adv-x="1092" 
d="M539 1143q-136 0 -214 72.5t-78 197.5h196q0 -127 94 -127q97 0 97 127h206q0 -124 -82.5 -197t-218.5 -73zM1059 276h6v-231q-136 -68 -231 -68q-126 0 -171 114q-105 -65 -177 -89.5t-138 -24.5q-135 0 -216 75.5t-81 211.5q0 55 15.5 101t39 79.5t66 62.5t80.5 47.5
t100 38t108 31t119 28.5q40 9 60 14v14q0 123 -147 123q-126 0 -367 -94v290q235 70 401 70q202 0 308 -109t106 -350v-221q0 -36 1 -54t5 -42t14 -34.5t27 -10.5q29 0 72 28zM391 307q0 -44 20.5 -66t55.5 -22q66 0 172 65v196q-142 -43 -180 -64q-65 -44 -68 -109z" />
    <glyph glyph-name="Aogonek" unicode="&#x104;" horiz-adv-x="1409" 
d="M1252 -303q65 0 143 82v-221q-91 -62 -190 -62q-89 0 -143 51.5t-54 135.5q0 72 45 154t136 163h-181l-70 254h-467l-70 -254h-387l453 1413h475l453 -1413q-95 -67 -143.5 -136t-48.5 -116q0 -23 13 -37t36 -14zM556 561h297l-144 522h-9z" />
    <glyph glyph-name="aogonek" unicode="&#x105;" horiz-adv-x="1092" 
d="M1065 45q-95 -67 -143.5 -136t-48.5 -116q0 -23 13 -37t36 -14q65 0 143 82v-221q-91 -62 -190 -62q-89 0 -143 51.5t-54 135.5q0 122 116 252q-94 16 -131 111q-105 -65 -177 -89.5t-138 -24.5q-135 0 -216 75.5t-81 211.5q0 55 15.5 101t39 79.5t66 62.5t80.5 47.5
t100 38t108 31t119 28.5q40 9 60 14v14q0 123 -147 123q-126 0 -367 -94v290q235 70 401 70q202 0 308 -109t106 -350v-221q0 -36 1 -54t5 -42t14 -34.5t27 -10.5q29 0 72 28h6v-231zM391 307q0 -44 20.5 -66t55.5 -22q66 0 172 65v196q-142 -43 -180 -64q-65 -44 -68 -109z
" />
    <glyph glyph-name="Cacute" unicode="&#x106;" horiz-adv-x="1321" 
d="M607 1531l211 246h323l-303 -246h-231zM743 -20q-110 0 -208 25.5t-184 82t-148.5 139t-98.5 202.5t-36 267q0 183 54.5 323.5t149.5 225t214 126.5t257 42q235 0 459 -108v-404h-6q-228 176 -444 176q-150 0 -242 -96.5t-92 -284.5t92 -284.5t242 -96.5q103 0 218 45.5
t226 131.5h6v-404q-221 -108 -459 -108z" />
    <glyph glyph-name="cacute" unicode="&#x107;" horiz-adv-x="969" 
d="M425 1167l211 246h323l-303 -246h-231zM541 -20q-120 0 -215 42t-155.5 116.5t-92 172.5t-31.5 213q0 155 54 276t167.5 195t272.5 74q153 0 321 -59v-357h-6q-121 115 -262 115q-93 0 -153 -62.5t-60 -181.5t61 -181t154 -62q135 0 260 114h6v-356q-160 -59 -321 -59z
" />
    <glyph glyph-name="Cdotaccent" unicode="&#x10a;" horiz-adv-x="1321" 
d="M547 1521v256h352v-256h-352zM743 -20q-110 0 -208 25.5t-184 82t-148.5 139t-98.5 202.5t-36 267q0 183 54.5 323.5t149.5 225t214 126.5t257 42q235 0 459 -108v-404h-6q-228 176 -444 176q-150 0 -242 -96.5t-92 -284.5t92 -284.5t242 -96.5q103 0 218 45.5t226 131.5
h6v-404q-221 -108 -459 -108z" />
    <glyph glyph-name="cdotaccent" unicode="&#x10b;" horiz-adv-x="969" 
d="M365 1157v256h352v-256h-352zM541 -20q-120 0 -215 42t-155.5 116.5t-92 172.5t-31.5 213q0 155 54 276t167.5 195t272.5 74q153 0 321 -59v-357h-6q-121 115 -262 115q-93 0 -153 -62.5t-60 -181.5t61 -181t154 -62q135 0 260 114h6v-356q-160 -59 -321 -59z" />
    <glyph glyph-name="Ccaron" unicode="&#x10c;" horiz-adv-x="1321" 
d="M617 1525l-213 252h231l86 -129l86 129h234l-215 -252h-209zM743 -20q-110 0 -208 25.5t-184 82t-148.5 139t-98.5 202.5t-36 267q0 183 54.5 323.5t149.5 225t214 126.5t257 42q235 0 459 -108v-404h-6q-228 176 -444 176q-150 0 -242 -96.5t-92 -284.5t92 -284.5
t242 -96.5q103 0 218 45.5t226 131.5h6v-404q-221 -108 -459 -108z" />
    <glyph glyph-name="ccaron" unicode="&#x10d;" horiz-adv-x="969" 
d="M435 1161l-213 252h231l86 -129l86 129h234l-215 -252h-209zM541 -20q-120 0 -215 42t-155.5 116.5t-92 172.5t-31.5 213q0 155 54 276t167.5 195t272.5 74q153 0 321 -59v-357h-6q-121 115 -262 115q-93 0 -153 -62.5t-60 -181.5t61 -181t154 -62q135 0 260 114h6v-356
q-160 -59 -321 -59z" />
    <glyph glyph-name="Dcaron" unicode="&#x10e;" horiz-adv-x="1386" 
d="M566 1525l-213 252h231l86 -129l86 129h234l-215 -252h-209zM160 0v1413h465q343 0 518.5 -186.5t175.5 -521.5q0 -338 -177.5 -521.5t-518.5 -183.5h-463zM518 328h103q170 0 258 96.5t88 286.5q0 183 -86.5 277.5t-259.5 94.5h-103v-755z" />
    <glyph glyph-name="dcaron" unicode="&#x10f;" horiz-adv-x="1503" 
d="M1161 1415h348v-364q0 -105 -23 -177t-70 -112.5t-108 -58t-145 -17.5v148q27 0 50 3.5t39 9t28.5 16t21 19t14 24t8 26t3.5 29t1 29.5t-0.5 31t-0.5 30h-166v364zM741 912v501h338v-1413h-348v127q-107 -147 -280 -147q-175 0 -286.5 148t-111.5 396q0 249 113.5 398
t290.5 149q87 0 161 -41t123 -118zM573 264q87 0 133 68.5t46 193.5q0 124 -46 192t-133 68q-88 0 -134 -68t-46 -192q0 -126 46 -194t134 -68z" />
    <glyph glyph-name="Dcroat" unicode="&#x110;" horiz-adv-x="1386" 
d="M625 1413q343 0 518.5 -186.5t175.5 -521.5q0 -338 -177.5 -521.5t-518.5 -183.5h-463v625h-100v164h100v624h465zM621 328q170 0 258 96.5t88 286.5q0 183 -86.5 277.5t-259.5 94.5h-103v-294h150v-164h-150v-297h103z" />
    <glyph glyph-name="dcroat" unicode="&#x111;" horiz-adv-x="1206" 
d="M1210 1325v-164h-131v-1161h-348v127q-107 -147 -280 -147q-175 0 -286.5 148t-111.5 396q0 249 113.5 398t290.5 149q87 0 161 -41t123 -118v249h-139v164h139v88h338v-88h131zM573 264q87 0 133 68.5t46 193.5q0 124 -46 192t-133 68q-88 0 -134 -68t-46 -192
q0 -126 46 -194t134 -68z" />
    <glyph glyph-name="Emacron" unicode="&#x112;" horiz-adv-x="1266" 
d="M310 1535v183h645v-183h-645zM160 0v1413h975v-332h-617v-217h580v-311h-580v-219h617v-334h-975z" />
    <glyph glyph-name="emacron" unicode="&#x113;" horiz-adv-x="1055" 
d="M852 1354v-183h-645v183h645zM983 588q0 -51 -10 -123h-616q18 -105 102 -158t194 -53q144 0 295 82h10v-279q-169 -77 -352 -77q-93 0 -177.5 22.5t-155 68.5t-122.5 111t-81 154.5t-29 195.5q0 124 38.5 226t104.5 169.5t154.5 104.5t189.5 37q201 0 328 -134t127 -347
zM530 836q-76 0 -122.5 -45t-55.5 -123h345q-6 81 -48.5 124.5t-118.5 43.5z" />
    <glyph glyph-name="Edotaccent" unicode="&#x116;" horiz-adv-x="1266" 
d="M457 1521v256h352v-256h-352zM160 0v1413h975v-332h-617v-217h580v-311h-580v-219h617v-334h-975z" />
    <glyph glyph-name="edotaccent" unicode="&#x117;" horiz-adv-x="1055" 
d="M706 1413v-256h-352v256h352zM983 588q0 -51 -10 -123h-616q18 -105 102 -158t194 -53q144 0 295 82h10v-279q-169 -77 -352 -77q-93 0 -177.5 22.5t-155 68.5t-122.5 111t-81 154.5t-29 195.5q0 124 38.5 226t104.5 169.5t154.5 104.5t189.5 37q201 0 328 -134t127 -347
zM530 836q-76 0 -122.5 -45t-55.5 -123h345q-6 81 -48.5 124.5t-118.5 43.5z" />
    <glyph glyph-name="Eogonek" unicode="&#x118;" horiz-adv-x="1266" 
d="M1135 1081h-617v-217h580v-311h-580v-219h617v-334q-95 -67 -143.5 -136t-48.5 -116q0 -23 13 -37t36 -14q65 0 143 82v-221q-91 -62 -190 -62q-89 0 -143 51.5t-54 135.5q0 72 45 154t136 163h-769v1413h975v-332z" />
    <glyph glyph-name="eogonek" unicode="&#x119;" horiz-adv-x="1055" 
d="M983 588q0 -51 -10 -123h-616q18 -105 102 -158t194 -53q144 0 295 82h10v-279q-95 -67 -143.5 -136t-48.5 -116q0 -23 13 -37t36 -14q65 0 143 82v-221q-91 -62 -190 -62q-89 0 -143 51.5t-54 135.5q0 118 108 243q-36 -3 -73 -3q-93 0 -177.5 22.5t-155 68.5
t-122.5 111t-81 154.5t-29 195.5q0 124 38.5 226t104.5 169.5t154.5 104.5t189.5 37q201 0 328 -134t127 -347zM530 836q-76 0 -122.5 -45t-55.5 -123h345q-6 81 -48.5 124.5t-118.5 43.5z" />
    <glyph glyph-name="Ecaron" unicode="&#x11a;" horiz-adv-x="1266" 
d="M527 1525l-213 252h231l86 -129l86 129h234l-215 -252h-209zM160 0v1413h975v-332h-617v-217h580v-311h-580v-219h617v-334h-975z" />
    <glyph glyph-name="ecaron" unicode="&#x11b;" horiz-adv-x="1055" 
d="M633 1161h-209l-213 252h231l86 -129l86 129h234zM983 588q0 -51 -10 -123h-616q18 -105 102 -158t194 -53q144 0 295 82h10v-279q-169 -77 -352 -77q-93 0 -177.5 22.5t-155 68.5t-122.5 111t-81 154.5t-29 195.5q0 124 38.5 226t104.5 169.5t154.5 104.5t189.5 37
q201 0 328 -134t127 -347zM530 836q-76 0 -122.5 -45t-55.5 -123h345q-6 81 -48.5 124.5t-118.5 43.5z" />
    <glyph glyph-name="Gbreve" unicode="&#x11e;" horiz-adv-x="1339" 
d="M709 1507q-136 0 -214 72.5t-78 197.5h196q0 -127 94 -127q97 0 97 127h206q0 -124 -82.5 -197t-218.5 -73zM754 1077q-150 0 -240 -96.5t-90 -284.5q0 -189 89.5 -286t236.5 -97q47 0 102 11v376h350v-612q-221 -108 -459 -108q-110 0 -208 25.5t-184 82t-148.5 139
t-98.5 202.5t-36 267q0 183 54.5 323.5t149.5 225t214 126.5t257 42q235 0 459 -108v-398h-16q-223 170 -432 170z" />
    <glyph glyph-name="gbreve" unicode="&#x11f;" horiz-adv-x="1208" 
d="M600 1143q-136 0 -214 72.5t-78 197.5h196q0 -127 94 -127q97 0 97 127h206q0 -124 -82.5 -197t-218.5 -73zM535 -385q-196 0 -429 59v314q224 -94 402 -94q225 0 225 184v121q-17 -52 -88.5 -92.5t-175.5 -40.5q-83 0 -154.5 29t-130 87t-92 156t-33.5 225
q0 129 34.5 229.5t93 159t127.5 88t145 29.5q92 0 166 -40t108 -95v115h348v-951q0 -128 -39 -222.5t-112.5 -151t-171.5 -83t-223 -26.5zM578 326q165 0 165 229q0 227 -165 227q-166 0 -166 -227q0 -229 166 -229z" />
    <glyph glyph-name="Gdotaccent" unicode="&#x120;" horiz-adv-x="1339" 
d="M889 1777v-256h-352v256h352zM754 1077q-150 0 -240 -96.5t-90 -284.5q0 -189 89.5 -286t236.5 -97q47 0 102 11v376h350v-612q-221 -108 -459 -108q-110 0 -208 25.5t-184 82t-148.5 139t-98.5 202.5t-36 267q0 183 54.5 323.5t149.5 225t214 126.5t257 42
q235 0 459 -108v-398h-16q-223 170 -432 170z" />
    <glyph glyph-name="gdotaccent" unicode="&#x121;" horiz-adv-x="1208" 
d="M428 1157v256h352v-256h-352zM535 -385q-196 0 -429 59v314q224 -94 402 -94q225 0 225 184v121q-17 -52 -88.5 -92.5t-175.5 -40.5q-83 0 -154.5 29t-130 87t-92 156t-33.5 225q0 129 34.5 229.5t93 159t127.5 88t145 29.5q92 0 166 -40t108 -95v115h348v-951
q0 -128 -39 -222.5t-112.5 -151t-171.5 -83t-223 -26.5zM578 326q165 0 165 229q0 227 -165 227q-166 0 -166 -227q0 -229 166 -229z" />
    <glyph glyph-name="Gcommaaccent" unicode="&#x122;" horiz-adv-x="1339" 
d="M754 1077q-150 0 -240 -96.5t-90 -284.5q0 -189 89.5 -286t236.5 -97q47 0 102 11v376h350v-612q-221 -108 -459 -108q-110 0 -208 25.5t-184 82t-148.5 139t-98.5 202.5t-36 267q0 183 54.5 323.5t149.5 225t214 126.5t257 42q235 0 459 -108v-398h-16
q-223 170 -432 170zM424 -430l135 301h308l-260 -301h-183z" />
    <glyph glyph-name="gcommaaccent" unicode="&#x123;" horiz-adv-x="1208" 
d="M448 1159l260 250h183l-135 -250h-308zM535 -385q-196 0 -429 59v314q224 -94 402 -94q225 0 225 184v121q-17 -52 -88.5 -92.5t-175.5 -40.5q-83 0 -154.5 29t-130 87t-92 156t-33.5 225q0 129 34.5 229.5t93 159t127.5 88t145 29.5q92 0 166 -40t108 -95v115h348v-951
q0 -128 -39 -222.5t-112.5 -151t-171.5 -83t-223 -26.5zM578 326q165 0 165 229q0 227 -165 227q-166 0 -166 -227q0 -229 166 -229z" />
    <glyph glyph-name="Hbar" unicode="&#x126;" horiz-adv-x="1462" 
d="M1395 1225v-164h-92v-1061h-359v553h-426v-553h-358v1061h-92v164h92v188h358v-188h426v188h359v-188h92zM944 864v197h-426v-197h426z" />
    <glyph glyph-name="hbar" unicode="&#x127;" horiz-adv-x="1311" 
d="M223 0v1151h-96v164h96v98h340v-98h172v-164h-172v-260h12q47 78 122.5 128t176.5 50q146 0 239 -102t93 -267v-700h-348v582q0 78 -40 118.5t-103 40.5t-103.5 -40.5t-40.5 -118.5v-582h-348z" />
    <glyph glyph-name="Itilde" unicode="&#x128;" horiz-adv-x="678" 
d="M127 1511l-156 92q90 193 244 193q49 0 97.5 -20t86.5 -40t62 -20q45 0 90 84l151 -93q-86 -188 -237 -188q-50 0 -99 20t-87 40t-60 20q-27 0 -48.5 -20t-43.5 -68zM160 0v1413h358v-1413h-358z" />
    <glyph glyph-name="Imacron" unicode="&#x12a;" horiz-adv-x="678" 
d="M15 1535v183h645v-183h-645zM160 0v1413h358v-1413h-358z" />
    <glyph glyph-name="imacron" unicode="&#x12b;" horiz-adv-x="602" 
d="M-20 1171v183h645v-183h-645zM127 0v1049h348v-1049h-348z" />
    <glyph glyph-name="Iogonek" unicode="&#x12e;" horiz-adv-x="678" 
d="M518 0q-95 -67 -143.5 -136t-48.5 -116q0 -23 13 -37t36 -14q65 0 143 82v-221q-91 -62 -190 -62q-89 0 -143 51.5t-54 135.5q0 72 45 154t136 163h-152v1413h358v-1413z" />
    <glyph glyph-name="iogonek" unicode="&#x12f;" horiz-adv-x="602" 
d="M127 1413h352v-256h-352v256zM127 0v1049h348v-1049q-95 -67 -143.5 -136t-48.5 -116q0 -23 13 -37t36 -14q65 0 143 82v-221q-91 -62 -190 -62q-89 0 -143 51.5t-54 135.5q0 72 45 154t136 163h-142z" />
    <glyph glyph-name="Idotaccent" unicode="&#x130;" horiz-adv-x="678" 
d="M162 1521v256h352v-256h-352zM160 0v1413h358v-1413h-358z" />
    <glyph glyph-name="dotlessi" unicode="&#x131;" horiz-adv-x="602" 
d="M127 0v1049h348v-1049h-348z" />
    <glyph glyph-name="IJ" unicode="&#x132;" horiz-adv-x="1481" 
d="M160 0v1413h358v-1413h-358zM918 -20q-154 0 -211 20v322q15 -2 46 -6t55.5 -6.5t43.5 -2.5q25 0 36 0.5t30.5 4.5t28.5 14t19.5 27t14.5 45t4 67v948h359v-1026q0 -185 -114 -296t-312 -111z" />
    <glyph glyph-name="ij" unicode="&#x133;" horiz-adv-x="1204" 
d="M127 1157v256h352v-256h-352zM727 1157v256h352v-256h-352zM127 0v1049h348v-1049h-348zM758 -375q-87 0 -179 31v276q38 -10 62 -10q44 0 66 35t22 117v975h348v-1057q0 -187 -87.5 -277t-231.5 -90z" />
    <glyph glyph-name="Kcommaaccent" unicode="&#x136;" horiz-adv-x="1419" 
d="M897 815l508 -815h-447l-440 773v-773h-358v1413h358v-559l420 559h455zM416 -430l135 301h308l-260 -301h-183z" />
    <glyph glyph-name="kcommaaccent" unicode="&#x137;" horiz-adv-x="1184" 
d="M817 653l371 -653h-391l-322 627v-627h-348v1413h348v-696l287 332h416zM311 -430l135 301h308l-260 -301h-183z" />
    <glyph glyph-name="kgreenlandic" unicode="&#x138;" horiz-adv-x="1184" 
d="M1188 0h-391l-322 627v-627h-348v1049h348v-332l287 332h416l-361 -396z" />
    <glyph glyph-name="Lacute" unicode="&#x139;" horiz-adv-x="1092" 
d="M222 1531l211 246h323l-303 -246h-231zM160 0v1413h358v-1081h543v-332h-901z" />
    <glyph glyph-name="lacute" unicode="&#x13a;" horiz-adv-x="643" 
d="M199 1532l211 246h323l-303 -246h-231zM111 1413h344v-1048q0 -74 17 -104t58 -30q27 0 91 11v-242q-140 -20 -203 -20q-152 0 -229.5 88t-77.5 225v1120z" />
    <glyph glyph-name="Lcommaaccent" unicode="&#x13b;" horiz-adv-x="1092" 
d="M160 0v1413h358v-1081h543v-332h-901zM323 -430l135 301h308l-260 -301h-183z" />
    <glyph glyph-name="lcommaaccent" unicode="&#x13c;" horiz-adv-x="637" 
d="M111 1413h344v-1048q0 -74 17 -104t58 -30q27 0 91 11v-242q-140 -20 -203 -20q-152 0 -229.5 88t-77.5 225v1120zM18 -430l135 301h308l-260 -301h-183z" />
    <glyph glyph-name="Lcaron" unicode="&#x13d;" horiz-adv-x="1176" 
d="M160 0v1413h358v-1081h543v-332h-901zM715 684v147q27 0 49.5 3.5t39 9t29 16t20.5 19.5t13.5 24.5t8.5 26t4 29t1 29.5t-0.5 31.5t-0.5 29.5h-166v364h348v-364q0 -105 -23 -177t-70 -112.5t-108 -58t-145 -17.5z" />
    <glyph glyph-name="lcaron" unicode="&#x13e;" horiz-adv-x="924" 
d="M131 1413h344v-1048q0 -74 17 -104t58 -30q27 0 91 11v-242q-140 -20 -203 -20q-152 0 -229.5 88t-77.5 225v1120zM584 684v147q27 0 49.5 3.5t39 9t29 16t20.5 19.5t13.5 24.5t8.5 26t4 29t1 29.5t-0.5 31.5t-0.5 29.5h-166v364h348v-364q0 -204 -86 -284.5t-260 -80.5z
" />
    <glyph glyph-name="Lslash" unicode="&#x141;" horiz-adv-x="1092" 
d="M518 332h543v-332h-901v418l-80 -57v270l80 61v721h358v-449l115 87v-293l-115 -83v-343z" />
    <glyph glyph-name="lslash" unicode="&#x142;" horiz-adv-x="709" 
d="M530 231q27 0 91 11v-242q-140 -20 -203 -20q-152 0 -229.5 88t-77.5 225v100l-60 -43v270l60 46v747h344v-486l149 113v-293l-149 -107v-275q0 -74 17 -104t58 -30z" />
    <glyph glyph-name="Nacute" unicode="&#x143;" horiz-adv-x="1528" 
d="M648 1531l211 246h323l-303 -246h-231zM160 0v1413h346l495 -805h9v805h358v-1413h-350l-490 791h-10v-791h-358z" />
    <glyph glyph-name="nacute" unicode="&#x144;" horiz-adv-x="1214" 
d="M490 1167l211 246h323l-303 -246h-231zM127 0v1049h342v-158h10q47 78 123 128t178 50q145 0 237.5 -102t92.5 -267v-700h-346v602q0 78 -41 119t-105 41q-62 0 -102.5 -41t-40.5 -119v-602h-348z" />
    <glyph glyph-name="Ncommaaccent" unicode="&#x145;" horiz-adv-x="1528" 
d="M160 0v1413h346l495 -805h9v805h358v-1413h-350l-490 791h-10v-791h-358zM475 -430l135 301h308l-260 -301h-183z" />
    <glyph glyph-name="ncommaaccent" unicode="&#x146;" horiz-adv-x="1214" 
d="M127 0v1049h342v-158h10q47 78 123 128t178 50q145 0 237.5 -102t92.5 -267v-700h-346v602q0 78 -41 119t-105 41q-62 0 -102.5 -41t-40.5 -119v-602h-348zM317 -430l135 301h308l-260 -301h-183z" />
    <glyph glyph-name="Ncaron" unicode="&#x147;" horiz-adv-x="1528" 
d="M658 1525l-213 252h231l86 -129l86 129h234l-215 -252h-209zM160 0v1413h346l495 -805h9v805h358v-1413h-350l-490 791h-10v-791h-358z" />
    <glyph glyph-name="ncaron" unicode="&#x148;" horiz-adv-x="1214" 
d="M500 1161l-213 252h231l86 -129l86 129h234l-215 -252h-209zM127 0v1049h342v-158h10q47 78 123 128t178 50q145 0 237.5 -102t92.5 -267v-700h-346v602q0 78 -41 119t-105 41q-62 0 -102.5 -41t-40.5 -119v-602h-348z" />
    <glyph glyph-name="Eng" unicode="&#x14a;" horiz-adv-x="1528" 
d="M887 -289v166q73 0 102 25t29 98l-490 791h-10v-791h-358v1413h346l495 -805h9v805h358v-1413q0 -75 -15.5 -124t-46.5 -82.5t-90.5 -51t-135.5 -24.5t-193 -7z" />
    <glyph glyph-name="eng" unicode="&#x14b;" horiz-adv-x="1214" 
d="M610 -326v236q69 -27 97 -27q29 0 43 26t14 101v592q0 78 -41 119t-105 41q-62 0 -102.5 -41t-40.5 -119v-602h-348v1049h342v-158h10q47 78 123 128t178 50q145 0 237.5 -102t92.5 -267v-587q0 -272 -61 -380t-211 -108q-96 0 -228 49z" />
    <glyph glyph-name="Omacron" unicode="&#x14c;" horiz-adv-x="1438" 
d="M396 1535v183h645v-183h-645zM717 -20q-300 0 -474.5 196.5t-174.5 530.5t175 530.5t474 196.5q298 0 475.5 -197t177.5 -530t-177.5 -530t-475.5 -197zM719 311q130 0 207.5 105t77.5 291q0 185 -77.5 290t-207.5 105q-131 0 -207 -104.5t-76 -290.5t76 -291t207 -105z
" />
    <glyph glyph-name="omacron" unicode="&#x14d;" horiz-adv-x="1133" 
d="M246 1171v183h645v-183h-645zM567 -20q-240 0 -381 146t-141 396q0 249 141.5 398t380.5 149q238 0 379 -148t141 -399t-140.5 -396.5t-379.5 -145.5zM571 264q86 0 132.5 68.5t46.5 193.5q0 124 -46.5 192t-132.5 68q-88 0 -135 -68t-47 -192q0 -125 47 -193.5
t135 -68.5z" />
    <glyph glyph-name="Ohungarumlaut" unicode="&#x150;" horiz-adv-x="1438" 
d="M420 1544l180 233h246l-197 -233h-229zM786 1544l183 233h293l-250 -233h-226zM717 -20q-300 0 -474.5 196.5t-174.5 530.5t175 530.5t474 196.5q298 0 475.5 -197t177.5 -530t-177.5 -530t-475.5 -197zM719 311q130 0 207.5 105t77.5 291q0 185 -77.5 290t-207.5 105
q-131 0 -207 -104.5t-76 -290.5t76 -291t207 -105z" />
    <glyph glyph-name="ohungarumlaut" unicode="&#x151;" horiz-adv-x="1133" 
d="M270 1180l180 233h246l-197 -233h-229zM636 1180l183 233h293l-250 -233h-226zM567 -20q-240 0 -381 146t-141 396q0 249 141.5 398t380.5 149q238 0 379 -148t141 -399t-140.5 -396.5t-379.5 -145.5zM571 264q86 0 132.5 68.5t46.5 193.5q0 124 -46.5 192t-132.5 68
q-88 0 -135 -68t-47 -192q0 -125 47 -193.5t135 -68.5z" />
    <glyph glyph-name="OE" unicode="&#x152;" horiz-adv-x="1847" 
d="M764 0q-343 0 -519.5 184t-176.5 527q0 329 176.5 515.5t517.5 186.5h954v-332h-526v-207h489v-331h-489v-209h526v-334h-952zM786 348h48v715h-68q-172 0 -259 -91.5t-87 -260.5q0 -177 92 -270t274 -93z" />
    <glyph glyph-name="oe" unicode="&#x153;" horiz-adv-x="1776" 
d="M1702 588q0 -51 -10 -123h-605q49 -211 283 -211q157 0 307 88v-285q-169 -77 -350 -77q-237 0 -391 133q-139 -136 -369 -136q-239 0 -380.5 147.5t-141.5 397.5q0 249 141.5 398t380.5 149q216 0 354 -124q132 124 326 124q200 0 327.5 -134t127.5 -347zM1251 836
q-142 0 -170 -168h321q-11 82 -46 125t-105 43zM569 262q83 0 132 70t49 190q0 119 -49 190.5t-132 71.5q-81 0 -130.5 -71t-49.5 -191t49 -190t131 -70z" />
    <glyph glyph-name="Racute" unicode="&#x154;" horiz-adv-x="1360" 
d="M1165 1778l-303 -246h-231l211 246h323zM1341 -2h-409l-258 510h-158v-508h-356v1413h518q280 0 417.5 -124.5t137.5 -346.5q0 -284 -223 -380zM516 1096v-314h160q113 0 158 42.5t45 119.5q0 82 -44.5 117t-158.5 35h-160z" />
    <glyph glyph-name="racute" unicode="&#x155;" horiz-adv-x="780" 
d="M271 1167l211 246h323l-303 -246h-231zM127 0v1049h334v-199q49 68 130.5 129t174.5 90v-336q-97 -21 -179.5 -64t-111.5 -87v-582h-348z" />
    <glyph glyph-name="Rcommaaccent" unicode="&#x156;" horiz-adv-x="1360" 
d="M1010 562l331 -564h-409l-258 510h-158v-508h-356v1413h518q280 0 417.5 -124.5t137.5 -346.5q0 -284 -223 -380zM516 1096v-314h160q113 0 158 42.5t45 119.5q0 82 -44.5 117t-158.5 35h-160zM417 -430l135 301h308l-260 -301h-183z" />
    <glyph glyph-name="rcommaaccent" unicode="&#x157;" horiz-adv-x="780" 
d="M127 0v1049h334v-199q49 68 130.5 129t174.5 90v-336q-97 -21 -179.5 -64t-111.5 -87v-582h-348zM14 -430l135 301h308l-260 -301h-183z" />
    <glyph glyph-name="Rcaron" unicode="&#x158;" horiz-adv-x="1360" 
d="M844 1526h-209l-213 252h231l86 -129l86 129h234zM1341 -2h-409l-258 510h-158v-508h-356v1413h518q280 0 417.5 -124.5t137.5 -346.5q0 -284 -223 -380zM516 1096v-314h160q113 0 158 42.5t45 119.5q0 82 -44.5 117t-158.5 35h-160z" />
    <glyph glyph-name="rcaron" unicode="&#x159;" horiz-adv-x="780" 
d="M281 1161l-213 252h231l86 -129l86 129h234l-215 -252h-209zM127 0v1049h334v-199q49 68 130.5 129t174.5 90v-336q-97 -21 -179.5 -64t-111.5 -87v-582h-348z" />
    <glyph glyph-name="Sacute" unicode="&#x15a;" horiz-adv-x="1145" 
d="M455 1531l211 246h323l-303 -246h-231zM555 -20q-205 0 -438 90v391h8q103 -63 222.5 -103.5t205.5 -40.5q78 0 124 33t46 88q0 45 -34.5 75.5t-89.5 49t-122 36.5t-133.5 46.5t-121.5 70.5t-89.5 117.5t-34.5 178.5q0 108 37.5 190.5t103.5 132.5t149.5 74.5t182.5 24.5
q221 0 420 -105v-352h-10q-95 63 -212 107t-200 44q-55 0 -87.5 -21.5t-32.5 -59.5q0 -30 21.5 -52t57.5 -37t82.5 -28t98 -29.5t103 -38t98 -56t82.5 -79.5t57.5 -114.5t21.5 -155.5q0 -231 -141.5 -354t-374.5 -123z" />
    <glyph glyph-name="sacute" unicode="&#x15b;" horiz-adv-x="965" 
d="M365 1167l211 246h323l-303 -246h-231zM481 -23q-169 0 -389 58v295q84 -31 197 -55.5t174 -24.5q44 0 74 15t30 46q0 16 -9.5 30t-22.5 23t-38 19t-45 16t-54.5 16t-55.5 17q-43 14 -75.5 28.5t-69.5 39.5t-60.5 55t-39 75.5t-15.5 100.5q0 173 100 255.5t281 82.5
q188 0 391 -68v-290q-106 43 -213 73.5t-162 30.5q-37 0 -59.5 -13.5t-22.5 -37.5q0 -17 10.5 -30.5t36 -25t45 -18.5t60.5 -20q36 -11 51.5 -16.5t51 -19t54 -23t49 -27.5t47.5 -35.5t38.5 -43t32 -53t18.5 -63.5t8 -76q0 -150 -102 -243t-316 -93z" />
    <glyph glyph-name="Scedilla" unicode="&#x15e;" horiz-adv-x="1145" 
d="M1071 457q0 -202 -109.5 -322t-296.5 -147l-65 -94q85 -27 134.5 -72t49.5 -125q0 -90 -65.5 -135t-180.5 -45q-88 0 -188 24v176q105 -39 174 -39q80 0 80 54q0 13 -4.5 23.5t-16.5 19t-23 15t-33 13.5t-36.5 11.5t-44.5 12.5t-47 13l79 143q-180 16 -361 87v391h8
q103 -63 222.5 -103.5t205.5 -40.5q78 0 124 33t46 88q0 45 -34.5 75.5t-89.5 49t-122 36.5t-133.5 46.5t-121.5 70.5t-89.5 117.5t-34.5 178.5q0 108 37.5 190.5t103.5 132.5t149.5 74.5t182.5 24.5q221 0 420 -105v-352h-10q-95 63 -212 107t-200 44q-55 0 -87.5 -21.5
t-32.5 -59.5q0 -30 21.5 -52t57.5 -37t82.5 -28t98 -29.5t103 -38t98 -56t82.5 -79.5t57.5 -114.5t21.5 -155.5z" />
    <glyph glyph-name="scedilla" unicode="&#x15f;" horiz-adv-x="965" 
d="M899 313q0 -133 -80.5 -222.5t-247.5 -108.5l-61 -88q85 -27 134.5 -72t49.5 -125q0 -90 -65.5 -135t-180.5 -45q-88 0 -188 24v176q105 -39 174 -39q80 0 80 54q0 13 -4.5 23.5t-16.5 19t-23 15t-33 13.5t-36.5 11.5t-44.5 12.5t-47 13l78 141q-136 12 -295 54v295
q84 -31 197 -55.5t174 -24.5q44 0 74 15t30 46q0 16 -9.5 30t-22.5 23t-38 19t-45 16t-54.5 16t-55.5 17q-43 14 -75.5 28.5t-69.5 39.5t-60.5 55t-39 75.5t-15.5 100.5q0 173 100 255.5t281 82.5q188 0 391 -68v-290q-106 43 -213 73.5t-162 30.5q-37 0 -59.5 -13.5
t-22.5 -37.5q0 -17 10.5 -30.5t36 -25t45 -18.5t60.5 -20q36 -11 51.5 -16.5t51 -19t54 -23t49 -27.5t47.5 -35.5t38.5 -43t32 -53t18.5 -63.5t8 -76z" />
    <glyph glyph-name="Scaron" unicode="&#x160;" horiz-adv-x="1145" 
d="M465 1525l-213 252h231l86 -129l86 129h234l-215 -252h-209zM555 -20q-205 0 -438 90v391h8q103 -63 222.5 -103.5t205.5 -40.5q78 0 124 33t46 88q0 45 -34.5 75.5t-89.5 49t-122 36.5t-133.5 46.5t-121.5 70.5t-89.5 117.5t-34.5 178.5q0 108 37.5 190.5t103.5 132.5
t149.5 74.5t182.5 24.5q221 0 420 -105v-352h-10q-95 63 -212 107t-200 44q-55 0 -87.5 -21.5t-32.5 -59.5q0 -30 21.5 -52t57.5 -37t82.5 -28t98 -29.5t103 -38t98 -56t82.5 -79.5t57.5 -114.5t21.5 -155.5q0 -231 -141.5 -354t-374.5 -123z" />
    <glyph glyph-name="scaron" unicode="&#x161;" horiz-adv-x="965" 
d="M375 1161l-213 252h231l86 -129l86 129h234l-215 -252h-209zM481 -23q-169 0 -389 58v295q84 -31 197 -55.5t174 -24.5q44 0 74 15t30 46q0 16 -9.5 30t-22.5 23t-38 19t-45 16t-54.5 16t-55.5 17q-43 14 -75.5 28.5t-69.5 39.5t-60.5 55t-39 75.5t-15.5 100.5
q0 173 100 255.5t281 82.5q188 0 391 -68v-290q-106 43 -213 73.5t-162 30.5q-37 0 -59.5 -13.5t-22.5 -37.5q0 -17 10.5 -30.5t36 -25t45 -18.5t60.5 -20q36 -11 51.5 -16.5t51 -19t54 -23t49 -27.5t47.5 -35.5t38.5 -43t32 -53t18.5 -63.5t8 -76q0 -150 -102 -243
t-316 -93z" />
    <glyph glyph-name="uni0162" unicode="&#x162;" horiz-adv-x="1122" 
d="M739 0h-76l-73 -106q85 -27 134.5 -72t49.5 -125q0 -90 -65.5 -135t-180.5 -45q-88 0 -188 24v176q105 -39 174 -39q80 0 80 54q0 13 -4.5 23.5t-16.5 19t-23 15t-33 13.5t-36.5 11.5t-44.5 12.5t-47 13l88 160h-96v1081h-350v332h1061v-332h-353v-1081z" />
    <glyph glyph-name="uni0163" unicode="&#x163;" horiz-adv-x="731" 
d="M490 -106q85 -27 134.5 -72t49.5 -125q0 -90 -65.5 -135t-180.5 -45q-88 0 -188 24v176q105 -39 174 -39q80 0 80 54q0 13 -4.5 23.5t-16.5 19t-23 15t-33 13.5t-36.5 11.5t-44.5 12.5t-47 13l82 150q-109 24 -164 106.5t-55 196.5v543h-123v213h123v200l348 82v-282h172
v-213h-172v-471q0 -75 16 -104.5t57 -29.5q27 0 91 11v-242q-69 -9 -111 -14z" />
    <glyph glyph-name="Tcaron" unicode="&#x164;" horiz-adv-x="1122" 
d="M455 1525l-213 252h231l86 -129l86 129h234l-215 -252h-209zM381 0v1081h-350v332h1061v-332h-353v-1081h-358z" />
    <glyph glyph-name="tcaron" unicode="&#x165;" horiz-adv-x="731" 
d="M602 1901h348v-365q0 -105 -23 -177t-70 -112.5t-108 -58t-145 -17.5v148q27 0 50 3.5t39 9t28.5 16t21 19.5t14 24t8 26t3.5 29.5t1 29t-0.5 30.5t-0.5 30h-166v365zM500 1331v-282h172v-213h-172v-471q0 -75 16 -104.5t57 -29.5q27 0 91 11v-242q-144 -20 -203 -20
q-153 0 -231 88t-78 225v543h-123v213h123v200z" />
    <glyph glyph-name="Tbar" unicode="&#x166;" horiz-adv-x="1122" 
d="M1092 1081h-353v-260h244v-228h-244v-593h-358v593h-244v228h244v260h-350v332h1061v-332z" />
    <glyph glyph-name="tbar" unicode="&#x167;" horiz-adv-x="731" 
d="M672 836h-172v-230h129v-164h-129v-77q0 -75 16 -104.5t57 -29.5q27 0 91 11v-242q-144 -20 -203 -20q-153 0 -231 88t-78 225v149h-131v164h131v230h-123v213h123v200l348 82v-282h172v-213z" />
    <glyph glyph-name="Umacron" unicode="&#x16a;" horiz-adv-x="1356" 
d="M355 1535v183h645v-183h-645zM672 -20q-278 0 -411.5 150t-133.5 429v854h358v-866q0 -99 48.5 -152t138.5 -53q97 0 148.5 53.5t51.5 151.5v866h357v-844q0 -589 -557 -589z" />
    <glyph glyph-name="umacron" unicode="&#x16b;" horiz-adv-x="1212" 
d="M283 1171v183h645v-183h-645zM432 -20q-144 0 -237 102t-93 266v701h347v-603q0 -77 40.5 -118t102.5 -41q64 0 104.5 40.5t40.5 118.5v603h348v-1049h-342v158h-10q-45 -78 -121.5 -128t-179.5 -50z" />
    <glyph glyph-name="Uring" unicode="&#x16e;" horiz-adv-x="1356" 
d="M678 1480q-98 0 -166 69t-68 167q0 96 68.5 163.5t165.5 67.5t165 -67t68 -164t-68.5 -166.5t-164.5 -69.5zM678 1611q42 0 72 30.5t30 72.5q0 43 -29.5 72.5t-72.5 29.5t-72.5 -29.5t-29.5 -72.5t29.5 -73t72.5 -30zM672 -20q-278 0 -411.5 150t-133.5 429v854h358v-866
q0 -99 48.5 -152t138.5 -53q97 0 148.5 53.5t51.5 151.5v866h357v-844q0 -589 -557 -589z" />
    <glyph glyph-name="uring" unicode="&#x16f;" horiz-adv-x="1212" 
d="M606 1116q-98 0 -166 69t-68 167q0 96 68.5 163.5t165.5 67.5t165 -67t68 -164t-68.5 -166.5t-164.5 -69.5zM606 1247q42 0 72 30.5t30 72.5q0 43 -29.5 72.5t-72.5 29.5t-72.5 -29.5t-29.5 -72.5t29.5 -73t72.5 -30zM432 -20q-144 0 -237 102t-93 266v701h347v-603
q0 -77 40.5 -118t102.5 -41q64 0 104.5 40.5t40.5 118.5v603h348v-1049h-342v158h-10q-45 -78 -121.5 -128t-179.5 -50z" />
    <glyph glyph-name="Uhungarumlaut" unicode="&#x170;" horiz-adv-x="1356" 
d="M379 1544l180 233h246l-197 -233h-229zM745 1544l183 233h293l-250 -233h-226zM672 -20q-278 0 -411.5 150t-133.5 429v854h358v-866q0 -99 48.5 -152t138.5 -53q97 0 148.5 53.5t51.5 151.5v866h357v-844q0 -589 -557 -589z" />
    <glyph glyph-name="uhungarumlaut" unicode="&#x171;" horiz-adv-x="1212" 
d="M307 1180l180 233h246l-197 -233h-229zM673 1180l183 233h293l-250 -233h-226zM432 -20q-144 0 -237 102t-93 266v701h347v-603q0 -77 40.5 -118t102.5 -41q64 0 104.5 40.5t40.5 118.5v603h348v-1049h-342v158h-10q-45 -78 -121.5 -128t-179.5 -50z" />
    <glyph glyph-name="Uogonek" unicode="&#x172;" horiz-adv-x="1356" 
d="M872 1413h357v-844q0 -500 -402 -575q-90 -66 -136.5 -132.5t-46.5 -113.5q0 -23 13 -37t36 -14q65 0 143 82v-221q-91 -62 -190 -62q-89 0 -143 51.5t-54 135.5q0 147 162 299q-247 17 -365.5 165.5t-118.5 411.5v854h358v-866q0 -99 48.5 -152t138.5 -53
q97 0 148.5 53.5t51.5 151.5v866z" />
    <glyph glyph-name="uogonek" unicode="&#x173;" horiz-adv-x="1212" 
d="M1085 0q-95 -67 -143.5 -136t-48.5 -116q0 -23 13 -37t36 -14q65 0 143 82v-221q-91 -62 -190 -62q-89 0 -143 51.5t-54 135.5q0 72 45 154t136 163h-136v158h-10q-45 -78 -121.5 -128t-179.5 -50q-144 0 -237 102t-93 266v701h347v-603q0 -77 40.5 -118t102.5 -41
q64 0 104.5 40.5t40.5 118.5v603h348v-1049z" />
    <glyph glyph-name="Wcircumflex" unicode="&#x174;" horiz-adv-x="1919" 
d="M637 1518l213 260h209l215 -260h-252l-68 116l-67 -116h-250zM287 0l-240 1413h371l153 -1089h15l180 1089h389l180 -1089h13l153 1089h371l-242 -1413h-522l-152 946l-145 -946h-524z" />
    <glyph glyph-name="wcircumflex" unicode="&#x175;" horiz-adv-x="1673" 
d="M519 1153l213 260h208l216 -260h-234l-86 137l-86 -137h-231zM276 -8l-268 1057h367l141 -715l162 715h315l160 -721l145 721h367l-270 -1049h-445l-119 549l-112 -557h-443z" />
    <glyph glyph-name="Ycircumflex" unicode="&#x176;" horiz-adv-x="1315" 
d="M338 1513l213 261h209l215 -261h-252l-70 117l-67 -117h-248zM481 0v549l-483 864h399l271 -500l247 500h402l-483 -864v-549h-353z" />
    <glyph glyph-name="ycircumflex" unicode="&#x177;" horiz-adv-x="1069" 
d="M218 1153l213 260h208l216 -260h-234l-86 137l-86 -137h-231zM279 -377q-60 0 -158 10v277q70 -12 125 -12q57 0 85.5 19.5t28.5 66.5q0 16 -14 63l-354 1002h373l157 -611h19l164 611h372l-411 -1141q-59 -162 -148.5 -223.5t-238.5 -61.5z" />
    <glyph glyph-name="Ydieresis" unicode="&#x178;" horiz-adv-x="1315" 
d="M346 1518v256h234v-256h-234zM729 1518v256h236v-256h-236zM481 0v549l-483 864h399l271 -500l247 500h402l-483 -864v-549h-353z" />
    <glyph glyph-name="Zacute" unicode="&#x179;" horiz-adv-x="1237" 
d="M481 1528l209 246h326l-305 -246h-230zM68 0v248l600 833h-559v332h1042v-268l-567 -813h567v-332h-1083z" />
    <glyph glyph-name="zacute" unicode="&#x17a;" horiz-adv-x="1016" 
d="M924 1413l-303 -246h-231l211 246h323zM934 1049v-279l-426 -473h426v-297h-854v266l456 488h-460v295h858z" />
    <glyph glyph-name="Zdotaccent" unicode="&#x17b;" horiz-adv-x="1237" 
d="M477 1518v256h234v-256h-234zM68 0v248l600 833h-559v332h1042v-268l-567 -813h567v-332h-1083z" />
    <glyph glyph-name="zdotaccent" unicode="&#x17c;" horiz-adv-x="1016" 
d="M682 1413v-256h-352v256h352zM934 1049v-279l-426 -473h426v-297h-854v266l456 488h-460v295h858z" />
    <glyph glyph-name="Zcaron" unicode="&#x17d;" horiz-adv-x="1237" 
d="M489 1522l-213 252h248l70 -109l68 109h251l-215 -252h-209zM68 0v248l600 833h-559v332h1042v-268l-567 -813h567v-332h-1083z" />
    <glyph glyph-name="zcaron" unicode="&#x17e;" horiz-adv-x="1016" 
d="M609 1161h-209l-213 252h231l86 -129l86 129h234zM934 1049v-279l-426 -473h426v-297h-854v266l456 488h-460v295h858z" />
    <glyph glyph-name="florin" unicode="&#x192;" horiz-adv-x="872" 
d="M94 -457v307q95 0 133.5 34.5t38.5 115.5v836h-143v213h147v71q0 137 77 225.5t231 88.5q57 0 202 -21v-242q-55 11 -90 11q-57 0 -71.5 -26.5t-14.5 -106.5h176v-213h-166v-836q0 -121 -38.5 -211t-110 -142.5t-163.5 -78t-208 -25.5z" />
    <glyph glyph-name="uni01CD" unicode="&#x1cd;" horiz-adv-x="1409" 
d="M810 1525h-209l-213 252h231l86 -129l86 129h234zM1008 0l-70 254h-467l-70 -254h-387l453 1413h475l453 -1413h-387zM556 561h297l-144 522h-9z" />
    <glyph glyph-name="uni01CE" unicode="&#x1ce;" horiz-adv-x="1092" 
d="M646 1161h-209l-213 252h231l86 -129l86 129h234zM1059 276h6v-231q-136 -68 -231 -68q-126 0 -171 114q-105 -65 -177 -89.5t-138 -24.5q-135 0 -216 75.5t-81 211.5q0 55 15.5 101t39 79.5t66 62.5t80.5 47.5t100 38t108 31t119 28.5q40 9 60 14v14q0 123 -147 123
q-126 0 -367 -94v290q235 70 401 70q202 0 308 -109t106 -350v-221q0 -36 1 -54t5 -42t14 -34.5t27 -10.5q29 0 72 28zM391 307q0 -44 20.5 -66t55.5 -22q66 0 172 65v196q-142 -43 -180 -64q-65 -44 -68 -109z" />
    <glyph glyph-name="uni01CF" unicode="&#x1cf;" horiz-adv-x="678" 
d="M232 1525l-213 252h231l86 -129l86 129h234l-215 -252h-209zM160 0v1413h358v-1413h-358z" />
    <glyph glyph-name="uni01D0" unicode="&#x1d0;" horiz-adv-x="602" 
d="M197 1161l-213 252h231l86 -129l86 129h234l-215 -252h-209zM127 0v1049h348v-1049h-348z" />
    <glyph glyph-name="uni01D1" unicode="&#x1d1;" horiz-adv-x="1438" 
d="M613 1525l-213 252h231l86 -129l86 129h234l-215 -252h-209zM717 -20q-300 0 -474.5 196.5t-174.5 530.5t175 530.5t474 196.5q298 0 475.5 -197t177.5 -530t-177.5 -530t-475.5 -197zM719 311q130 0 207.5 105t77.5 291q0 185 -77.5 290t-207.5 105q-131 0 -207 -104.5
t-76 -290.5t76 -291t207 -105z" />
    <glyph glyph-name="uni01D2" unicode="&#x1d2;" horiz-adv-x="1133" 
d="M463 1161l-213 252h231l86 -129l86 129h234l-215 -252h-209zM567 -20q-240 0 -381 146t-141 396q0 249 141.5 398t380.5 149q238 0 379 -148t141 -399t-140.5 -396.5t-379.5 -145.5zM571 264q86 0 132.5 68.5t46.5 193.5q0 124 -46.5 192t-132.5 68q-88 0 -135 -68
t-47 -192q0 -125 47 -193.5t135 -68.5z" />
    <glyph glyph-name="uni01D3" unicode="&#x1d3;" horiz-adv-x="1356" 
d="M572 1525l-213 252h231l86 -129l86 129h234l-215 -252h-209zM672 -20q-278 0 -411.5 150t-133.5 429v854h358v-866q0 -99 48.5 -152t138.5 -53q97 0 148.5 53.5t51.5 151.5v866h357v-844q0 -589 -557 -589z" />
    <glyph glyph-name="uni01D4" unicode="&#x1d4;" horiz-adv-x="1212" 
d="M500 1161l-213 252h231l86 -129l86 129h234l-215 -252h-209zM432 -20q-144 0 -237 102t-93 266v701h347v-603q0 -77 40.5 -118t102.5 -41q64 0 104.5 40.5t40.5 118.5v603h348v-1049h-342v158h-10q-45 -78 -121.5 -128t-179.5 -50z" />
    <glyph glyph-name="uni01D5" unicode="&#x1d5;" horiz-adv-x="1356" 
d="M355 1899v183h645v-183h-645zM334 1521v256h270v-256h-270zM752 1521v256h272v-256h-272zM672 -20q-278 0 -411.5 150t-133.5 429v854h358v-866q0 -99 48.5 -152t138.5 -53q97 0 148.5 53.5t51.5 151.5v866h357v-844q0 -589 -557 -589z" />
    <glyph glyph-name="uni01D6" unicode="&#x1d6;" horiz-adv-x="1212" 
d="M283 1535v183h645v-183h-645zM262 1157v256h270v-256h-270zM680 1157v256h272v-256h-272zM432 -20q-144 0 -237 102t-93 266v701h347v-603q0 -77 40.5 -118t102.5 -41q64 0 104.5 40.5t40.5 118.5v603h348v-1049h-342v158h-10q-45 -78 -121.5 -128t-179.5 -50z" />
    <glyph glyph-name="uni01D7" unicode="&#x1d7;" horiz-adv-x="1356" 
d="M562 1895l211 246h323l-303 -246h-231zM334 1521v256h270v-256h-270zM752 1521v256h272v-256h-272zM672 -20q-278 0 -411.5 150t-133.5 429v854h358v-866q0 -99 48.5 -152t138.5 -53q97 0 148.5 53.5t51.5 151.5v866h357v-844q0 -589 -557 -589z" />
    <glyph glyph-name="uni01D8" unicode="&#x1d8;" horiz-adv-x="1212" 
d="M490 1531l211 246h323l-303 -246h-231zM262 1157v256h270v-256h-270zM680 1157v256h272v-256h-272zM432 -20q-144 0 -237 102t-93 266v701h347v-603q0 -77 40.5 -118t102.5 -41q64 0 104.5 40.5t40.5 118.5v603h348v-1049h-342v158h-10q-45 -78 -121.5 -128t-179.5 -50z
" />
    <glyph glyph-name="uni01D9" unicode="&#x1d9;" horiz-adv-x="1356" 
d="M572 1889l-213 252h231l86 -129l86 129h234l-215 -252h-209zM334 1521v256h270v-256h-270zM752 1521v256h272v-256h-272zM672 -20q-278 0 -411.5 150t-133.5 429v854h358v-866q0 -99 48.5 -152t138.5 -53q97 0 148.5 53.5t51.5 151.5v866h357v-844q0 -589 -557 -589z" />
    <glyph glyph-name="uni01DA" unicode="&#x1da;" horiz-adv-x="1212" 
d="M500 1525l-213 252h231l86 -129l86 129h234l-215 -252h-209zM262 1157v256h270v-256h-270zM680 1157v256h272v-256h-272zM432 -20q-144 0 -237 102t-93 266v701h347v-603q0 -77 40.5 -118t102.5 -41q64 0 104.5 40.5t40.5 118.5v603h348v-1049h-342v158h-10
q-45 -78 -121.5 -128t-179.5 -50z" />
    <glyph glyph-name="uni01DB" unicode="&#x1db;" horiz-adv-x="1356" 
d="M563 1895l-305 246h324l211 -246h-230zM334 1521v256h270v-256h-270zM752 1521v256h272v-256h-272zM672 -20q-278 0 -411.5 150t-133.5 429v854h358v-866q0 -99 48.5 -152t138.5 -53q97 0 148.5 53.5t51.5 151.5v866h357v-844q0 -589 -557 -589z" />
    <glyph glyph-name="uni01DC" unicode="&#x1dc;" horiz-adv-x="1212" 
d="M491 1531l-305 246h324l211 -246h-230zM262 1157v256h270v-256h-270zM680 1157v256h272v-256h-272zM432 -20q-144 0 -237 102t-93 266v701h347v-603q0 -77 40.5 -118t102.5 -41q64 0 104.5 40.5t40.5 118.5v603h348v-1049h-342v158h-10q-45 -78 -121.5 -128t-179.5 -50z
" />
    <glyph glyph-name="Scommaaccent" unicode="&#x218;" horiz-adv-x="1145" 
d="M555 -20q-205 0 -438 90v391h8q103 -63 222.5 -103.5t205.5 -40.5q78 0 124 33t46 88q0 45 -34.5 75.5t-89.5 49t-122 36.5t-133.5 46.5t-121.5 70.5t-89.5 117.5t-34.5 178.5q0 108 37.5 190.5t103.5 132.5t149.5 74.5t182.5 24.5q221 0 420 -105v-352h-10
q-95 63 -212 107t-200 44q-55 0 -87.5 -21.5t-32.5 -59.5q0 -30 21.5 -52t57.5 -37t82.5 -28t98 -29.5t103 -38t98 -56t82.5 -79.5t57.5 -114.5t21.5 -155.5q0 -231 -141.5 -354t-374.5 -123zM282 -430l135 301h308l-260 -301h-183z" />
    <glyph glyph-name="scommaaccent" unicode="&#x219;" horiz-adv-x="965" 
d="M481 -23q-169 0 -389 58v295q84 -31 197 -55.5t174 -24.5q44 0 74 15t30 46q0 16 -9.5 30t-22.5 23t-38 19t-45 16t-54.5 16t-55.5 17q-43 14 -75.5 28.5t-69.5 39.5t-60.5 55t-39 75.5t-15.5 100.5q0 173 100 255.5t281 82.5q188 0 391 -68v-290q-106 43 -213 73.5
t-162 30.5q-37 0 -59.5 -13.5t-22.5 -37.5q0 -17 10.5 -30.5t36 -25t45 -18.5t60.5 -20q36 -11 51.5 -16.5t51 -19t54 -23t49 -27.5t47.5 -35.5t38.5 -43t32 -53t18.5 -63.5t8 -76q0 -150 -102 -243t-316 -93zM192 -430l135 301h308l-260 -301h-183z" />
    <glyph glyph-name="uni021A" unicode="&#x21a;" horiz-adv-x="1122" 
d="M381 0v1081h-350v332h1061v-332h-353v-1081h-358zM272 -430l135 301h308l-260 -301h-183z" />
    <glyph glyph-name="uni021B" unicode="&#x21b;" horiz-adv-x="731" 
d="M672 836h-172v-471q0 -75 16 -104.5t57 -29.5q27 0 91 11v-242q-144 -20 -203 -20q-153 0 -231 88t-78 225v543h-123v213h123v200l348 82v-282h172v-213zM172 -430l135 301h308l-260 -301h-183z" />
    <glyph glyph-name="uni0237" unicode="&#x237;" horiz-adv-x="602" 
d="M156 -375q-87 0 -179 31v276q38 -10 62 -10q44 0 66 35t22 117v975h348v-1057q0 -187 -87.5 -277t-231.5 -90z" />
    <glyph glyph-name="circumflex" unicode="&#x2c6;" horiz-adv-x="686" 
d="M33 1153l213 260h208l216 -260h-234l-86 137l-86 -137h-231z" />
    <glyph glyph-name="caron" unicode="&#x2c7;" horiz-adv-x="690" 
d="M248 1161l-213 252h231l86 -129l86 129h234l-215 -252h-209z" />
    <glyph glyph-name="breve" unicode="&#x2d8;" horiz-adv-x="723" 
d="M358 1143q-136 0 -214 72.5t-78 197.5h196q0 -127 94 -127q97 0 97 127h206q0 -124 -82.5 -197t-218.5 -73z" />
    <glyph glyph-name="dotaccent" unicode="&#x2d9;" horiz-adv-x="475" 
d="M121 1108v256h233v-256h-233z" />
    <glyph glyph-name="ring" unicode="&#x2da;" horiz-adv-x="594" 
d="M297 1116q-98 0 -166 69t-68 167q0 96 68.5 163.5t165.5 67.5t165 -67t68 -164t-68.5 -166.5t-164.5 -69.5zM297 1247q42 0 72 30.5t30 72.5q0 43 -29.5 72.5t-72.5 29.5t-72.5 -29.5t-29.5 -72.5t29.5 -73t72.5 -30z" />
    <glyph glyph-name="ogonek" unicode="&#x2db;" horiz-adv-x="537" 
d="M252 -504q-89 0 -143 51.5t-54 135.5q0 78 53 167.5t160 176.5l174 -27q-95 -67 -143.5 -136t-48.5 -116q0 -23 13 -37t36 -14q65 0 143 82v-221q-91 -62 -190 -62z" />
    <glyph glyph-name="tilde" unicode="&#x2dc;" horiz-adv-x="823" 
d="M203 1147l-156 92q90 193 244 193q49 0 97.5 -20t86.5 -40t62 -20q45 0 90 84l151 -93q-86 -188 -237 -188q-50 0 -99 20t-87 40t-60 20q-27 0 -48.5 -20t-43.5 -68z" />
    <glyph glyph-name="hungarumlaut" unicode="&#x2dd;" horiz-adv-x="901" 
d="M37 1130l180 234h246l-197 -234h-229zM403 1130l183 234h293l-250 -234h-226z" />
    <glyph glyph-name="gravecomb" unicode="&#x300;" 
d="M-254 1167l-305 246h324l211 -246h-230z" />
    <glyph glyph-name="acutecomb" unicode="&#x301;" 
d="M-550 1167l211 246h323l-303 -246h-231z" />
    <glyph glyph-name="uni0302" unicode="&#x302;" 
d="M-661 1153l213 260h208l216 -260h-234l-86 137l-86 -137h-231z" />
    <glyph glyph-name="tildecomb" unicode="&#x303;" 
d="M-620 1147l-156 92q90 193 244 193q49 0 97.5 -20t86.5 -40t62 -20q45 0 90 84l151 -93q-86 -188 -237 -188q-50 0 -99 20t-87 40t-60 20q-27 0 -48.5 -20t-43.5 -68z" />
    <glyph glyph-name="uni0304" unicode="&#x304;" 
d="M-764 1171v183h645v-183h-645z" />
    <glyph glyph-name="uni0306" unicode="&#x306;" 
d="M-365 1143q-136 0 -214 72.5t-78 197.5h196q0 -127 94 -127q97 0 97 127h206q0 -124 -82.5 -197t-218.5 -73z" />
    <glyph glyph-name="uni0307" unicode="&#x307;" 
d="M-473 1157v256h352v-256h-352z" />
    <glyph glyph-name="uni0308" unicode="&#x308;" 
d="M-811 1157v256h270v-256h-270zM-393 1157v256h272v-256h-272z" />
    <glyph glyph-name="uni030A" unicode="&#x30a;" 
d="M-297 1116q-98 0 -166 69t-68 167q0 96 68.5 163.5t165.5 67.5t165 -67t68 -164t-68.5 -166.5t-164.5 -69.5zM-297 1247q42 0 72 30.5t30 72.5q0 43 -29.5 72.5t-72.5 29.5t-72.5 -29.5t-29.5 -72.5t29.5 -73t72.5 -30z" />
    <glyph glyph-name="uni030B" unicode="&#x30b;" 
d="M-864 1180l180 233h246l-197 -233h-229zM-498 1180l183 233h293l-250 -233h-226z" />
    <glyph glyph-name="uni030C" unicode="&#x30c;" 
d="M-450 1161l-213 252h231l86 -129l86 129h234l-215 -252h-209z" />
    <glyph glyph-name="uni0312" unicode="&#x312;" 
d="M-498 1159l260 250h183l-135 -250h-308z" />
    <glyph glyph-name="uni0326" unicode="&#x326;" 
d="M-457 -430l135 301h308l-260 -301h-183z" />
    <glyph glyph-name="uni0327" unicode="&#x327;" 
d="M-301 -483q-87 0 -188 24v176q105 -39 174 -39q80 0 80 54q0 13 -4.5 23.5t-16.5 19t-23 15t-33 13.5t-36.5 11.5t-44.5 12.5t-47 13l88 160h186l-73 -106q85 -27 134.5 -72t49.5 -125q0 -90 -65.5 -135t-180.5 -45z" />
    <glyph glyph-name="uni0328" unicode="&#x328;" 
d="M-285 -504q-89 0 -143 51.5t-54 135.5q0 78 53 167.5t160 176.5l174 -27q-95 -67 -143.5 -136t-48.5 -116q0 -23 13 -37t36 -14q65 0 143 82v-221q-91 -62 -190 -62z" />
    <glyph glyph-name="uni0335" unicode="&#x335;" 
d="M-727 508v164h608v-164h-608z" />
    <glyph glyph-name="uni0336" unicode="&#x336;" 
d="M-1446 487v164h1327v-164h-1327z" />
    <glyph glyph-name="uni0337" unicode="&#x337;" 
d="M-596 348v270l553 420v-293z" />
    <glyph glyph-name="uni0338" unicode="&#x338;" 
d="M-858 139l-66 70l889 1014l64 -70z" />
    <glyph glyph-name="pi" unicode="&#x3c0;" horiz-adv-x="1133" 
d="M922 -16q-116 0 -185 78t-69 241v428h-242v-731h-276v731h-74v268h923v-268h-73v-369q0 -122 75 -122q36 0 97 28v-248q-93 -36 -176 -36z" />
    <glyph glyph-name="Omega" unicode="&#x3c9;" horiz-adv-x="1544" 
d="M102 0v305h152q-77 77 -112.5 202.5t-35.5 240.5q0 139 55.5 263t147 210t212 136t249.5 50q132 0 254.5 -52t213.5 -141t145.5 -216t54.5 -269q0 -113 -34.5 -234t-105.5 -208h142v-287h-557v274q113 0 191.5 104.5t78.5 283.5q0 204 -105.5 321t-275.5 117
q-173 0 -278 -120t-105 -323q0 -82 18.5 -149t47.5 -109.5t66.5 -71.5t72.5 -41t68 -12v-274h-560z" />
    <glyph glyph-name="Wgrave" unicode="&#x1e80;" horiz-adv-x="1919" 
d="M840 1532l-303 246h323l211 -246h-231zM287 0l-240 1413h371l153 -1089h15l180 1089h389l180 -1089h13l153 1089h371l-242 -1413h-522l-152 946l-145 -946h-524z" />
    <glyph glyph-name="wgrave" unicode="&#x1e81;" horiz-adv-x="1673" 
d="M721 1167l-305 246h324l211 -246h-230zM276 -8l-268 1057h367l141 -715l162 715h315l160 -721l145 721h367l-270 -1049h-445l-119 549l-112 -557h-443z" />
    <glyph glyph-name="Wacute" unicode="&#x1e82;" horiz-adv-x="1919" 
d="M842 1532l211 246h323l-305 -246h-229zM287 0l-240 1413h371l153 -1089h15l180 1089h389l180 -1089h13l153 1089h371l-242 -1413h-522l-152 946l-145 -946h-524z" />
    <glyph glyph-name="wacute" unicode="&#x1e83;" horiz-adv-x="1673" 
d="M720 1167l211 246h323l-303 -246h-231zM276 -8l-268 1057h367l141 -715l162 715h315l160 -721l145 721h367l-270 -1049h-445l-119 549l-112 -557h-443z" />
    <glyph glyph-name="Wdieresis" unicode="&#x1e84;" horiz-adv-x="1919" 
d="M647 1522v256h234v-256h-234zM1030 1522v256h234v-256h-234zM287 0l-240 1413h371l153 -1089h15l180 1089h389l180 -1089h13l153 1089h371l-242 -1413h-522l-152 946l-145 -946h-524z" />
    <glyph glyph-name="wdieresis" unicode="&#x1e85;" horiz-adv-x="1673" 
d="M492 1157v256h270v-256h-270zM910 1157v256h272v-256h-272zM276 -8l-268 1057h367l141 -715l162 715h315l160 -721l145 721h367l-270 -1049h-445l-119 549l-112 -557h-443z" />
    <glyph glyph-name="Ygrave" unicode="&#x1ef2;" horiz-adv-x="1315" 
d="M541 1528l-305 246h325l209 -246h-229zM481 0v549l-483 864h399l271 -500l247 500h402l-483 -864v-549h-353z" />
    <glyph glyph-name="ygrave" unicode="&#x1ef3;" horiz-adv-x="1069" 
d="M420 1167l-305 246h324l211 -246h-230zM279 -377q-60 0 -158 10v277q70 -12 125 -12q57 0 85.5 19.5t28.5 66.5q0 16 -14 63l-354 1002h373l157 -611h19l164 611h372l-411 -1141q-59 -162 -148.5 -223.5t-238.5 -61.5z" />
    <glyph glyph-name="endash" unicode="&#x2013;" horiz-adv-x="1030" 
d="M123 358v328h784v-328h-784z" />
    <glyph glyph-name="emdash" unicode="&#x2014;" horiz-adv-x="1835" 
d="M-4 358v328h1843v-328h-1843z" />
    <glyph glyph-name="quoteleft" unicode="&#x2018;" horiz-adv-x="604" 
d="M121 684v365q0 104 23 176t70 112.5t108 58t145 17.5v-147q-27 0 -49.5 -3.5t-39 -9t-29 -16t-20.5 -19.5t-13.5 -24t-8.5 -26t-4 -29.5t-1 -29t0.5 -31t0.5 -29.5h166v-365h-348z" />
    <glyph glyph-name="quoteright" unicode="&#x2019;" horiz-adv-x="604" 
d="M137 684v147q27 0 50 3.5t39 9t28.5 16t21 19.5t14 24t8 26t3.5 29.5t1 29.5t-0.5 31t-0.5 30h-166v364h348v-364q0 -105 -23 -177t-70 -112.5t-108 -58t-145 -17.5z" />
    <glyph glyph-name="quotesinglbase" unicode="&#x201a;" horiz-adv-x="604" 
d="M137 -365v148q27 0 50 3.5t39 9t28.5 16t21 19.5t14 24t8 26t3.5 29.5t1 29t-0.5 30.5t-0.5 30h-166v365h348v-365q0 -105 -23 -177t-70 -112.5t-108 -58t-145 -17.5z" />
    <glyph glyph-name="quotedblleft" unicode="&#x201c;" horiz-adv-x="1104" 
d="M121 684v365q0 104 23 176t70 112.5t108 58t145 17.5v-147q-27 0 -49.5 -3.5t-39 -9t-29 -16t-20.5 -19.5t-13.5 -24t-8.5 -26t-4 -29.5t-1 -29t0.5 -31t0.5 -29.5h166v-365h-348zM621 684v365q0 104 23 176t70 112.5t108 58t145 17.5v-147q-27 0 -50 -3.5t-39 -9
t-28.5 -16t-21 -19.5t-14 -24t-8 -26t-3.5 -29.5t-1 -29t0.5 -30.5t0.5 -30h166v-365h-348z" />
    <glyph glyph-name="quotedblright" unicode="&#x201d;" horiz-adv-x="1104" 
d="M137 684v147q27 0 50 3.5t39 9t28.5 16t21 19.5t14 24t8 26t3.5 29.5t1 29.5t-0.5 31t-0.5 30h-166v364h348v-364q0 -105 -23 -177t-70 -112.5t-108 -58t-145 -17.5zM637 684v147q27 0 49.5 3.5t39 9t29 16t20.5 19.5t13.5 24.5t8.5 26t4 29t1 29.5t-0.5 31.5t-0.5 29.5
h-166v364h348v-364q0 -105 -23 -177t-70 -112.5t-108 -58t-145 -17.5z" />
    <glyph glyph-name="quotedblbase" unicode="&#x201e;" horiz-adv-x="1104" 
d="M137 -365v148q27 0 50 3.5t39 9t28.5 16t21 19.5t14 24t8 26t3.5 29.5t1 29t-0.5 30.5t-0.5 30h-166v365h348v-365q0 -105 -23 -177t-70 -112.5t-108 -58t-145 -17.5zM637 -365v148q27 0 49.5 3.5t39 9t29 16t20.5 19.5t13.5 24t8.5 26t4 29.5t1 29t-0.5 31t-0.5 29.5
h-166v365h348v-365q0 -105 -23 -177t-70 -112.5t-108 -58t-145 -17.5z" />
    <glyph glyph-name="dagger" unicode="&#x2020;" horiz-adv-x="838" 
d="M262 -205v948h-199v353h199v317h313v-317h199v-353h-199v-948h-313z" />
    <glyph glyph-name="daggerdbl" unicode="&#x2021;" horiz-adv-x="952" 
d="M319 -205v318h-198v352h198v278h-198v353h198v317h314v-317h198v-353h-198v-278h198v-352h-198v-318h-314z" />
    <glyph glyph-name="bullet" unicode="&#x2022;" horiz-adv-x="1180" 
d="M592 18q-138 0 -254.5 68t-184 184.5t-67.5 253.5t67.5 253.5t184 184.5t254.5 68q135 0 250.5 -67.5t183.5 -184.5t68 -254t-68 -253.5t-183.5 -184.5t-250.5 -68z" />
    <glyph glyph-name="twodotenleader" unicode="&#x2025;" horiz-adv-x="1284" 
d="M174 0v367h350v-367h-350zM760 0v367h350v-367h-350z" />
    <glyph glyph-name="ellipsis" unicode="&#x2026;" horiz-adv-x="1870" 
d="M174 0v367h350v-367h-350zM760 0v367h350v-367h-350zM1346 0v367h350v-367h-350z" />
    <glyph glyph-name="guilsinglleft" unicode="&#x2039;" horiz-adv-x="608" 
d="M471 113l-467 397l467 399v-288l-149 -111l149 -109v-288z" />
    <glyph glyph-name="guilsinglright" unicode="&#x203a;" horiz-adv-x="608" 
d="M135 113v288l150 109l-150 111v288l467 -399z" />
    <glyph glyph-name="fraction" unicode="&#x2044;" horiz-adv-x="494" 
d="M-299 0l762 1413h328l-773 -1413h-317z" />
    <glyph glyph-name="Euro" unicode="&#x20ac;" horiz-adv-x="1292" 
d="M831 -23q-103 0 -188 27t-145.5 72.5t-106.5 111t-74 137t-45 156.5h-209l74 154h117q-2 24 -2 72v20h-154l82 164h84q14 88 40.5 164.5t72.5 148t108 122t151.5 80.5t197.5 30q201 0 335 -101l-118 -319q-109 90 -217 90q-182 0 -216 -215h386l-62 -164h-342v-20
q0 -50 2 -72h307l-57 -154h-221q14 -94 75.5 -141t149.5 -47q80 0 165 38.5t148 106.5v-360q-134 -101 -338 -101z" />
    <glyph glyph-name="trademark" unicode="&#x2122;" horiz-adv-x="1487" 
d="M238 774v459h-123v180h442v-180h-121v-459h-198zM616 774v639h283l62 -405l53 405h284v-639h-180v498l-110 -498h-97l-116 498v-498h-179z" />
    <glyph glyph-name="arrowleft" unicode="&#x2190;" horiz-adv-x="2191" 
d="M1092 -27l-1061 666l1061 653v-493h1028v-328h-1028v-498z" />
    <glyph glyph-name="arrowright" unicode="&#x2192;" horiz-adv-x="2191" 
d="M1098 -27v498h-1026v328h1026v493l1063 -653z" />
    <glyph glyph-name="partialdiff" unicode="&#x2202;" horiz-adv-x="1225" 
d="M543 -12q-217 0 -339 137t-122 360q0 128 42 239.5t111 187.5t159 119.5t186 43.5q92 0 164 -39.5t102 -111.5h6q0 119 -98.5 197.5t-268.5 78.5q-106 0 -227 -33v246q114 21 211 21q307 0 481 -176.5t174 -514.5q0 -153 -37.5 -288t-108 -240t-183 -166t-252.5 -61z
M565 299q110 0 180 85t70 218q0 110 -48.5 161.5t-129.5 51.5q-115 0 -187.5 -88t-72.5 -213q0 -103 51.5 -159t136.5 -56z" />
    <glyph glyph-name="uni2206" unicode="&#x2206;" horiz-adv-x="1417" 
d="M840 1413l536 -1413h-1335l537 1413h262zM698 1059l-260 -772h541l-262 772h-19z" />
    <glyph glyph-name="product" unicode="&#x220f;" horiz-adv-x="1343" 
d="M233 0v1106h-147v307h1171v-307h-147v-1106h-276v1106h-324v-1106h-277z" />
    <glyph glyph-name="summation" unicode="&#x2211;" horiz-adv-x="1262" 
d="M82 0v164l498 543l-498 540v166h1065v-307h-586l410 -399l-410 -400h586v-307h-1065z" />
    <glyph glyph-name="minus" unicode="&#x2212;" horiz-adv-x="1225" 
d="M186 373v291h852v-291h-852z" />
    <glyph glyph-name="radical" unicode="&#x221a;" horiz-adv-x="1325" 
d="M455 -233l-248 720h-152v312h359l161 -588l447 1227l262 -95l-604 -1576h-225z" />
    <glyph glyph-name="infinity" unicode="&#x221e;" horiz-adv-x="1561" 
d="M442 254q-142 0 -234.5 108.5t-92.5 270.5t92.5 270.5t234.5 108.5q165 0 336 -174q172 174 338 174q142 0 235 -108.5t93 -270.5t-93 -270.5t-235 -108.5q-167 0 -338 174q-169 -174 -336 -174zM463 530q30 0 62 24t85 79q-53 55 -85 78.5t-62 23.5q-41 0 -69.5 -27.5
t-28.5 -74.5q0 -48 28 -75.5t70 -27.5zM1096 530q42 0 70 27.5t28 75.5q0 47 -28.5 74.5t-69.5 27.5q-30 0 -62 -23.5t-86 -78.5q54 -55 86 -79t62 -24z" />
    <glyph glyph-name="integral" unicode="&#x222b;" horiz-adv-x="743" 
d="M63 -369v308q48 0 79 13.5t47.5 29t24 60t8.5 73.5t1 103v42v776q0 170 104 284t259 114q48 0 108 -15v-311q-34 14 -67 14q-57 0 -92 -44t-35 -115v-904q0 -237 -98.5 -332.5t-338.5 -95.5z" />
    <glyph glyph-name="approxequal" unicode="&#x2248;" horiz-adv-x="1212" 
d="M143 606q0 211 71.5 322.5t205.5 111.5q44 0 84 -15t69 -36t56.5 -42.5t58.5 -36.5t62 -15q86 0 86 145h237q0 -211 -71 -322.5t-205 -111.5q-53 0 -102.5 23t-80.5 50t-70.5 50t-76.5 23q-88 0 -88 -146h-236zM143 96q0 211 71.5 322.5t205.5 111.5q44 0 84 -15t69 -36
t56.5 -42.5t58.5 -36.5t62 -15q86 0 86 145h237q0 -211 -71 -322.5t-205 -111.5q-53 0 -102.5 23t-80.5 50t-70.5 50t-76.5 23q-88 0 -88 -146h-236z" />
    <glyph glyph-name="notequal" unicode="&#x2260;" horiz-adv-x="1311" 
d="M166 -164l149 289h-176v313h340l105 201h-445v313h609l155 297h252l-154 -297h168v-313h-327l-103 -201h430v-313h-591l-148 -289h-264z" />
    <glyph glyph-name="lessequal" unicode="&#x2264;" horiz-adv-x="1303" 
d="M1147 389l-1081 596l1081 596v-340l-500 -256l500 -256v-340zM92 0v287h1055v-287h-1055z" />
    <glyph glyph-name="greaterequal" unicode="&#x2265;" horiz-adv-x="1305" 
d="M156 389v340l499 256l-499 256v340l1081 -596zM156 0v287h1056v-287h-1056z" />
    <glyph glyph-name="lozenge" unicode="&#x25ca;" horiz-adv-x="1083" 
d="M426 0l-377 717l377 717h238l370 -717l-370 -717h-238zM539 340l170 377l-170 377l-166 -377z" />
    <glyph glyph-name="uniF8FF" unicode="&#xf8ff;" horiz-adv-x="1716" 
d="M858 -61q-158 0 -301 61t-247 165t-165 247t-61 301t61 301t165 247t247 165t301 61t301 -61t247 -165t165 -247t61 -301t-61 -301t-165 -247t-247 -165t-301 -61zM858 10q191 0 353 94t256 256t94 353q0 143 -55.5 273t-149.5 224t-224.5 149.5t-273.5 55.5t-273 -55.5
t-224 -149.5t-149.5 -224t-55.5 -273t55.5 -273.5t149.5 -224.5t224 -149.5t273 -55.5zM455 410q-15 0 -25 9.5t-10 24.5v537q0 15 10.5 26t24.5 11q15 0 26 -11t11 -26v-537q0 -15 -11 -24.5t-26 -9.5zM858 410q-15 0 -25 9.5t-10 24.5v537q0 15 10 26t25 11t25 -11t10 -26
v-537q0 -15 -9.5 -24.5t-25.5 -9.5zM1260 410q-16 0 -23 10l-270 268q-6 10 -6 25q0 18 6 24l270 269q9 12 23 12q13 0 24.5 -11.5t11.5 -23.5q0 -16 -10 -27l-244 -243l244 -244q10 -10 10 -27q0 -12 -11 -22t-25 -10zM590 678q-16 0 -25.5 9.5t-9.5 25.5q0 15 9.5 25
t25.5 10h133q15 0 26 -10t11 -25t-11 -25t-26 -10h-133z" />
    <glyph glyph-name="i.loclTRK" horiz-adv-x="602" 
d="M127 1157v256h352v-256h-352zM127 0v1049h348v-1049h-348z" />
    <glyph glyph-name="T_T" horiz-adv-x="2099" 
d="M2068 1413v-332h-354v-1081h-358v1081h-617v-1081h-358v1081h-350v332h2037z" />
    <glyph glyph-name="f_t" horiz-adv-x="1382" 
d="M1323 836h-172v-471q0 -75 16 -104.5t58 -29.5q26 0 90 11v-242q-144 -20 -203 -20q-153 0 -231 88t-78 225v543h-289v-836h-344v836h-147v213h147v71q0 65 18.5 121t55 99.5t96.5 68.5t137 25q56 0 203 -21v-242q-55 11 -90 11q-41 0 -58.5 -30t-17.5 -103h289v200
l348 82v-282h172v-213z" />
    <glyph glyph-name="t_t" horiz-adv-x="1360" 
d="M1300 836h-174v-471q0 -74 16.5 -104t57.5 -30q24 0 92 11v-242q-142 -20 -202 -20q-154 0 -232 88t-78 225v543h-280v-471q0 -75 16 -104.5t57 -29.5q27 0 91 11v-242q-144 -20 -203 -20q-153 0 -231 88t-78 225v543h-123v213h123v200l348 82v-282h280v200l346 82v-282
h174v-213z" />
    <glyph glyph-name="uni0338.case" 
d="M-1073 12l-150 158l1108 1231l148 -158z" />
    </font>
</defs>
</svg>
